<?xml version="1.0" standalone="no"?>
<!DOCTYPE svg PUBLIC "-//W3C//DTD SVG 1.1//EN" "http://www.w3.org/Graphics/SVG/1.1/DTD/svg11.dtd" >
<svg xmlns="http://www.w3.org/2000/svg">
<metadata>Generated by IcoMoon</metadata>
<defs>
<font id="icomoon" horiz-adv-x="1024">
<font-face units-per-em="1024" ascent="960" descent="-64" />
<missing-glyph horiz-adv-x="1024" />
<glyph unicode="&#x20;" horiz-adv-x="512" d="" />
<glyph unicode="&#xe900;" glyph-name="calendar" d="M870.029 874.667h-85.333v-85.335c0-17.067-14.225-28.445-28.446-28.445s-28.446 11.378-28.446 28.445v85.335h-455.121v-85.335c0-17.067-14.223-28.445-28.445-28.445s-28.445 11.378-28.445 28.445v85.335h-85.335c-42.668 0-73.957-36.979-73.957-85.335v-102.402h910.241v102.402c0 48.357-51.2 85.335-96.713 85.335zM56.5 627.194v-520.545c0-51.2 31.29-85.338 76.802-85.338h739.573c45.513 0 96.713 36.979 96.713 85.338v520.545h-913.087zM309.661 149.316h-68.268c-11.378 0-22.756 8.533-22.756 22.758v71.113c0 11.375 8.533 22.754 22.756 22.754h71.113c11.378 0 22.756-8.533 22.756-22.754v-71.113c-2.845-14.225-11.378-22.758-25.6-22.758zM309.661 405.321h-68.268c-11.378 0-22.756 8.533-22.756 22.758v71.113c0 11.379 8.533 22.754 22.756 22.754h71.113c11.378 0 22.756-8.533 22.756-22.754v-71.113c-2.845-14.225-11.378-22.758-25.6-22.758zM537.22 149.316h-71.113c-11.375 0-22.754 8.533-22.754 22.758v71.113c0 11.375 8.533 22.754 22.754 22.754h71.113c11.379 0 22.758-8.533 22.758-22.754v-71.113c0-14.225-8.533-22.758-22.758-22.758zM537.22 405.321h-71.113c-11.375 0-22.754 8.533-22.754 22.758v71.113c0 11.379 8.533 22.754 22.754 22.754h71.113c11.379 0 22.758-8.533 22.758-22.754v-71.113c0-14.225-8.533-22.758-22.758-22.758zM764.783 149.316h-71.113c-11.379 0-22.754 8.533-22.754 22.758v71.113c0 11.375 8.533 22.754 22.754 22.754h71.113c11.379 0 22.754-8.533 22.754-22.754v-71.113c0-14.225-8.533-22.758-22.754-22.758zM764.783 405.321h-71.113c-11.379 0-22.754 8.533-22.754 22.758v71.113c0 11.379 8.533 22.754 22.754 22.754h71.113c11.379 0 22.754-8.533 22.754-22.754v-71.113c0-14.225-8.533-22.758-22.754-22.758z" />
<glyph unicode="&#xe901;" glyph-name="menu" d="M554.667 192h-341.333c-25.6 0-42.667 17.067-42.667 42.667s17.067 42.667 42.667 42.667h341.333c25.6 0 42.667-17.067 42.667-42.667s-17.067-42.667-42.667-42.667zM810.667 405.333h-597.333c-25.6 0-42.667 17.067-42.667 42.667s17.067 42.667 42.667 42.667h597.333c25.6 0 42.667-17.067 42.667-42.667s-17.067-42.667-42.667-42.667zM810.667 618.667h-341.333c-25.6 0-42.667 17.067-42.667 42.667s17.067 42.667 42.667 42.667h341.333c25.6 0 42.667-17.067 42.667-42.667s-17.067-42.667-42.667-42.667z" />
<glyph unicode="&#xe902;" glyph-name="alert" d="M53.333 448c0 253.315 205.352 458.667 458.667 458.667s458.667-205.352 458.667-458.667c0-253.316-205.35-458.667-458.667-458.667-253.315 0-458.667 205.35-458.667 458.667zM565.333 490.667c0 17.673-14.327 32-32 32h-85.333c-17.673 0-32-14.327-32-32s14.327-32 32-32h53.333v-224c0-17.673 14.327-32 32-32s32 14.327 32 32v256zM565.333 661.333c0 17.673-14.327 32-32 32s-32-14.327-32-32v-42.667c0-17.673 14.327-32 32-32s32 14.327 32 32v42.667z" />
<glyph unicode="&#xe903;" glyph-name="verify" d="M192.613 697.225l298.668 165.926c12.885 7.159 28.553 7.159 41.438 0l298.667-165.926c13.547-7.525 21.948-21.802 21.948-37.297v-197.917c0-154.953-84.006-297.724-219.46-372.975l-101.154-56.196c-12.885-7.159-28.553-7.159-41.438 0l-101.155 56.196c-135.452 75.251-219.459 218.022-219.459 372.975v197.917c0 15.495 8.401 29.772 21.946 37.297zM468.041 340.036c12.497-12.497 32.755-12.497 45.252 0l170.667 170.667c12.497 12.497 12.497 32.757 0 45.254s-32.755 12.497-45.252 0l-148.041-148.038-62.707 62.703c-12.495 12.497-32.757 12.497-45.254 0-12.497-12.493-12.497-32.755 0-45.252l85.335-85.333z" />
<glyph unicode="&#xe904;" glyph-name="eye" d="M512 736c-174.13 0-325.612-96.719-403.517-239.172-16.643-30.43-16.643-67.217-0.001-97.651 77.905-142.455 229.388-239.177 403.518-239.177s325.611 96.721 403.516 239.172c16.644 30.43 16.644 67.217 0.004 97.651-77.905 142.454-229.389 239.177-403.52 239.177zM512 544c-53.018 0-96-42.982-96-96s42.982-96 96-96c29.035 0 55.057 12.89 72.657 33.254-29.274 5.879-51.324 31.74-51.324 62.746s22.050 56.862 51.324 62.746c-17.6 20.365-43.622 33.254-72.657 33.254zM352 448c0 88.366 71.634 160 160 160s160-71.634 160-160c0-88.367-71.633-160-160-160s-160 71.633-160 160z" />
<glyph unicode="&#xe905;" glyph-name="edit" d="M42.667 672v-426.667c0-135.492 109.839-245.333 245.333-245.333h426.667c135.492 0 245.333 109.841 245.333 245.333v426.667c0 135.494-109.841 245.333-245.333 245.333h-426.667c-135.494 0-245.333-109.839-245.333-245.333zM572.309 668.571c18.313 18.34 48.017 18.351 66.342 0.025l72.93-72.931c18.167-18.17 18.359-47.584 0.422-65.984l-48.674-49.941-139.887 139.889 48.866 48.943zM498.577 594.723l140.186-140.191-174.75-179.294c-13.244-13.585-31.407-21.248-50.372-21.248l-79.793 0.004c-20.010 0-35.991 16.683-35.149 36.689l3.408 81.020c0.741 17.626 8.067 34.334 20.528 46.814l175.943 176.206z" />
<glyph unicode="&#xe906;" glyph-name="heart-full" d="M819.866 360.951c-33.916-41.118-183.083-164.173-260.672-227.204-27.61-22.507-67.076-22.507-94.69 0-77.586 63.031-226.604 186.086-260.669 227.204-51.924 62.579-76.084 122.155-76.084 186.985 0 63.329 21.61 121.555 60.928 164.175 39.918 43.069 94.393 66.93 153.67 66.93 44.42 0 84.938-14.106 120.654-41.719 18.607-14.557 35.115-31.664 48.772-51.023 13.807 19.209 30.165 36.466 48.772 51.023 35.716 27.763 76.386 41.719 120.806 41.719 59.426 0 113.899-23.861 153.668-66.93 39.168-42.619 60.928-100.696 60.928-164.175 0.149-64.831-24.013-124.406-76.083-186.985z" />
<glyph unicode="&#xe907;" glyph-name="check" d="M53.333 661.333c0 135.494 109.839 245.333 245.333 245.333h426.667c135.492 0 245.333-109.839 245.333-245.333v-426.667c0-135.492-109.841-245.333-245.333-245.333h-426.667c-135.494 0-245.333 109.841-245.333 245.333v426.667zM382.706 446.707l85.335-85.333c12.497-12.497 32.755-12.497 45.252 0l170.667 170.667c12.497 12.495 12.497 32.757 0 45.254s-32.755 12.497-45.252 0l-148.041-148.038-62.707 62.703c-12.495 12.497-32.757 12.497-45.254 0s-12.497-32.755 0-45.252z" />
<glyph unicode="&#xe908;" glyph-name="close" d="M298.667 906.667c-135.494 0-245.333-109.839-245.333-245.333v-426.667c0-135.492 109.839-245.333 245.333-245.333h426.667c135.492 0 245.333 109.841 245.333 245.333v426.667c0 135.494-109.841 245.333-245.333 245.333h-426.667zM625.148 561.127c12.497-12.497 12.497-32.756 0-45.253l-67.883-67.883 67.883-67.887c12.497-12.493 12.497-32.755 0-45.252s-32.759-12.497-45.257 0l-67.883 67.883-67.883-67.883c-12.497-12.497-32.756-12.497-45.253 0s-12.497 32.759 0 45.257l67.879 67.883-67.879 67.878c-12.497 12.497-12.497 32.759 0 45.256s32.756 12.497 45.253 0l67.883-67.882 67.883 67.884c12.497 12.497 32.759 12.497 45.257 0z" />
<glyph unicode="&#xe909;" glyph-name="minus" d="M256 405.333q-18.133 0-30.4 12.267t-12.267 30.4 12.267 30.4 30.4 12.267h512q18.133 0 30.4-12.267t12.267-30.4-12.267-30.4-30.4-12.267h-512z" />
<glyph unicode="&#xe90a;" glyph-name="plus-squared" d="M298.667 906.667c-135.494 0-245.333-109.839-245.333-245.333v-426.667c0-135.492 109.839-245.333 245.333-245.333h426.667c135.492 0 245.333 109.841 245.333 245.333v426.667c0 135.494-109.841 245.333-245.333 245.333h-426.667zM672 448c0-17.673-14.327-32-32-32h-96v-96c0-17.673-14.327-32-32-32s-32 14.327-32 32v96h-96c-17.673 0-32 14.327-32 32s14.327 32 32 32h96v96c0 17.673 14.327 32 32 32s32-14.327 32-32v-96h96c17.673 0 32-14.327 32-32z" />
<glyph unicode="&#xe90b;" glyph-name="delete" d="M853.333 448c0 188.513-152.819 341.333-341.333 341.333s-341.333-152.82-341.333-341.333c0-188.514 152.82-341.333 341.333-341.333s341.333 152.819 341.333 341.333zM648.567 584.473c8.375-8.374 8.375-21.951 0-30.325l-106.159-106.161 106.116-106.116c8.371-8.371 8.371-21.952 0-30.323-8.375-8.375-21.952-8.375-30.327 0l-106.112 106.116-106.117-106.116c-8.374-8.375-21.951-8.375-30.325 0s-8.374 21.952 0 30.323l106.114 106.116-106.159 106.16c-8.374 8.374-8.374 21.951 0 30.325s21.951 8.374 30.325 0l106.162-106.161 106.159 106.162c8.375 8.374 21.952 8.374 30.323 0z" />
<glyph unicode="&#xe90c;" glyph-name="lock" horiz-adv-x="910" d="M40.278 400.593c0 124.366 100.819 225.185 225.185 225.185h379.259c124.365 0 225.183-100.819 225.183-225.185v-189.632c0-124.365-100.818-225.183-225.183-225.183h-379.259c-124.367 0-225.185 100.818-225.185 225.183v189.632zM490.648 353.183c0 19.638-15.919 35.556-35.556 35.556s-35.556-15.918-35.556-35.556v-94.811c0-19.638 15.919-35.556 35.556-35.556s35.556 15.918 35.556 35.556v94.811zM229.889 685.037c0 124.366 100.818 225.185 225.185 225.185s225.186-100.819 225.186-225.185v-94.815h-71.111v94.815c0 85.093-68.982 154.074-154.075 154.074s-154.074-68.981-154.074-154.074v-94.815h-71.111v94.815z" />
<glyph unicode="&#xe90d;" glyph-name="lock-open" d="M128 405.333c0 111.932 90.737 202.667 202.667 202.667h341.333c111.932 0 202.667-90.735 202.667-202.667v-170.667c0-111.932-90.735-202.667-202.667-202.667h-341.333c-111.93 0-202.667 90.735-202.667 202.667v170.667zM533.333 362.667c0 17.673-14.327 32-32 32s-32-14.327-32-32v-85.333c0-17.673 14.327-32 32-32s32 14.327 32 32v85.333zM625.779 740.596c10.103-14.502 30.046-18.068 44.548-7.966s18.069 30.047 7.966 44.548l-52.514-36.582zM353.203 787.259c-10.981-13.848-8.657-33.975 5.19-44.956s33.975-8.657 44.956 5.19l-50.147 39.766zM373.333 576v85.333h-64v-85.333h64zM373.333 661.333c0 76.583 62.084 138.667 138.667 138.667v64c-111.93 0-202.667-90.737-202.667-202.667h64zM678.293 777.178c-24.171 34.696-58.586 60.963-98.432 75.122l-21.427-60.305c27.26-9.687 50.807-27.66 67.345-51.399l52.514 36.582zM579.861 852.3c-39.842 14.159-83.119 15.501-123.763 3.838l17.655-61.517c27.81 7.98 57.417 7.062 84.681-2.626l21.427 60.305zM456.098 856.138c-40.643-11.663-76.622-35.747-102.895-68.879l50.147-39.766c17.976 22.669 42.594 39.148 70.404 47.128l-17.655 61.517z" />
<glyph unicode="&#xe90e;" glyph-name="eye-slash" d="M193.294 126.707c-12.497-12.497-32.758-12.497-45.255 0s-12.497 32.755 0 45.252l85.001 85.001c-55.751 40.102-102.128 92.369-135.225 152.892-16.643 30.43-16.642 67.217 0.001 97.651 77.905 142.45 229.387 239.169 403.517 239.169 65.203 0 127.232-13.562 183.411-38.008l103.296 103.297c12.497 12.497 32.755 12.497 45.252 0s12.497-32.758 0-45.255l-639.999-639.999zM576.192 600.115c-22.336 11.847-47.812 18.557-74.859 18.557-88.366 0-160-71.634-160-160.001 0-27.042 6.71-52.523 18.557-74.859l48.974 48.973c-2.301 8.235-3.531 16.917-3.531 25.886 0 53.022 42.982 96.001 96 96.001 8.969 0 17.651-1.23 25.886-3.531l48.973 48.974zM501.333 170.671c-53.559 0-104.98 9.152-152.775 25.971l108.295 108.292c14.118-4.075 29.043-6.263 44.48-6.263 88.367 0 160 71.637 160 160 0 15.437-2.185 30.362-6.263 44.484l138.658 138.656c45.073-37.165 82.918-82.744 111.125-134.317 16.64-30.43 16.64-67.221-0.004-97.651-77.905-142.451-229.385-239.172-403.516-239.172z" />
<glyph unicode="&#xe90f;" glyph-name="flash" d="M445.491 857.604h280.222c7.859 0 12.518-12.442 8.111-21.658l-100.651-210.947h176.213c8.213 0 12.77-13.414 7.663-22.528l-312.87-558.751c-6.409-11.469-19.328-2.867-17.225 11.469l50.927 347.755-271.959-5.12c-7.611-0.154-12.419 11.622-8.563 20.941l179.67 432.030c1.801 4.198 5.009 6.81 8.461 6.81z" />
<glyph unicode="&#xe910;" glyph-name="search" d="M471.364 768.009c-154.287 0-279.363-125.076-279.363-279.365 0-154.291 125.076-279.364 279.363-279.364 154.291 0 279.369 125.073 279.369 279.364 0 154.289-125.077 279.365-279.369 279.365zM100.573 488.644c0 204.783 166.010 370.793 370.791 370.793 204.787 0 370.795-166.010 370.795-370.793s-166.007-370.795-370.795-370.795c-204.782 0-370.791 166.012-370.791 370.795zM670.682 289.361c17.852 17.852 46.797 17.852 64.649 0l174.733-174.729c17.852-17.856 17.852-46.801 0-64.653-17.856-17.852-46.801-17.852-64.653 0l-174.729 174.733c-17.852 17.852-17.852 46.797 0 64.649z" />
<glyph unicode="&#xe911;" glyph-name="all" d="M476.165 698.88v-167.252c0-12.675-5.036-24.829-13.998-33.792-8.96-8.96-21.115-13.996-33.789-13.996h-167.252c-12.675 0-24.829 5.036-33.791 13.996-8.962 8.963-13.996 21.117-13.996 33.792v167.252c0 12.674 5.034 24.829 13.996 33.79s21.116 13.996 33.791 13.996h167.252c12.675 0 24.829-5.034 33.789-13.996 8.963-8.962 13.998-21.116 13.998-33.79zM762.885 746.667h-167.255c-12.672 0-24.827-5.034-33.789-13.996s-13.996-21.116-13.996-33.79v-167.252c0-12.675 5.033-24.829 13.996-33.792 8.963-8.96 21.117-13.996 33.789-13.996h167.255c12.672 0 24.827 5.036 33.789 13.996 8.963 8.963 13.996 21.117 13.996 33.792v167.252c0 12.674-5.033 24.829-13.996 33.79s-21.117 13.996-33.789 13.996zM428.378 412.16h-167.252c-12.675 0-24.829-5.036-33.791-13.996-8.962-8.963-13.996-21.117-13.996-33.792v-167.252c0-12.675 5.034-24.829 13.996-33.789 8.962-8.963 21.116-13.998 33.791-13.998h167.252c12.675 0 24.829 5.036 33.789 13.998 8.963 8.96 13.998 21.115 13.998 33.789v167.252c0 12.675-5.036 24.829-13.998 33.792-8.96 8.96-21.115 13.996-33.789 13.996zM679.258 412.16c-25.992 0-51.4-7.708-73.009-22.147-21.612-14.441-38.456-34.964-48.402-58.977s-12.549-50.435-7.478-75.927c5.071-25.492 17.587-48.906 35.965-67.284 18.378-18.381 41.795-30.897 67.284-35.965 25.492-5.071 51.914-2.468 75.927 7.478s44.536 26.79 58.977 48.399c14.441 21.612 22.147 47.020 22.147 73.011 0 34.852-13.844 68.278-38.49 92.923s-58.071 38.49-92.923 38.49z" />
<glyph unicode="&#xe912;" glyph-name="plus-circle" d="M810.655 746.643c-59.064 59.068-134.323 99.295-216.253 115.592s-166.856 7.932-244.033-24.035c-77.177-31.968-143.141-86.103-189.552-155.561s-71.181-151.117-71.181-234.654c0-83.533 24.771-165.197 71.181-234.655 46.41-69.453 112.374-123.592 189.552-155.561 77.177-31.964 162.103-40.33 244.033-24.033s157.189 56.525 216.259 115.594c79.084 79.273 123.5 186.68 123.5 298.655 0 111.978-44.416 219.385-123.505 298.658zM550.364 256.005c0.087-5.1-0.84-10.163-2.729-14.899s-4.705-9.047-8.279-12.682c-3.574-3.635-7.834-6.528-12.534-8.499-4.705-1.971-9.748-2.985-14.85-2.985-5.098 0-10.146 1.014-14.847 2.985s-8.964 4.864-12.538 8.499c-3.574 3.635-6.388 7.946-8.277 12.682s-2.817 9.8-2.728 14.899l0.027 153.59-153.591-0.026c-10.066 0.174-19.661 4.296-26.718 11.474-7.057 7.183-11.011 16.85-11.011 26.916s3.954 19.732 11.011 26.913 16.652 11.302 26.718 11.478l153.591 0.027 0.027 153.591c-0.089 5.098 0.839 10.162 2.728 14.898s4.703 9.047 8.277 12.683c3.574 3.637 7.836 6.525 12.538 8.496s9.749 2.987 14.846 2.987c5.1 0 10.148-1.015 14.848-2.987 4.705-1.971 8.965-4.859 12.539-8.496s6.39-7.948 8.279-12.683c1.889-4.735 2.816-9.8 2.729-14.898l-0.031-153.591 153.595 0.027c5.094 0.089 10.158-0.839 14.894-2.728s9.047-4.704 12.682-8.278c3.64-3.573 6.528-7.836 8.499-12.537s2.985-9.75 2.985-14.848c0-5.097-1.014-10.145-2.985-14.845-1.971-4.705-4.859-8.965-8.499-12.539-3.635-3.574-7.946-6.39-12.682-8.279s-9.8-2.816-14.894-2.729l-153.595-0.026-0.026-153.59z" />
<glyph unicode="&#xe913;" glyph-name="up" d="M511.999 640c-11.47 0-22.938-4.61-31.683-13.81l-275.187-289.658c-17.505-18.427-17.505-48.302 0-66.721 17.498-18.413 45.875-18.413 63.382 0l243.488 256.308 243.489-256.295c17.504-18.419 45.882-18.419 63.379 0 17.51 18.419 17.51 48.294 0 66.717l-275.185 289.658c-8.749 9.201-20.218 13.801-31.684 13.801z" />
<glyph unicode="&#xe914;" glyph-name="down" d="M512.001 256c11.47 0 22.939 4.608 31.684 13.811l275.188 289.656c17.504 18.426 17.504 48.3 0 66.719s-45.875 18.419-63.386 0l-243.487-256.305-243.49 256.296c-17.505 18.419-45.879 18.419-63.376 0-17.514-18.419-17.514-48.292 0-66.719l275.182-289.66c8.749-9.197 20.218-13.798 31.684-13.798z" />
<glyph unicode="&#xe915;" glyph-name="right" d="M704 447.999c0-11.47-4.608-22.939-13.811-31.683l-289.656-275.189c-18.426-17.504-48.3-17.504-66.719 0s-18.419 45.875 0 63.386l256.305 243.487-256.296 243.49c-18.419 17.505-18.419 45.879 0 63.376 18.419 17.514 48.292 17.514 66.719 0l289.66-275.182c9.197-8.749 13.798-20.218 13.798-31.684z" />
<glyph unicode="&#xe916;" glyph-name="left" d="M320 448.001c0 11.47 4.61 22.939 13.81 31.683l289.658 275.187c18.427 17.505 48.302 17.505 66.721 0 18.413-17.498 18.413-45.875 0-63.382l-256.308-243.488 256.295-243.489c18.419-17.504 18.419-45.882 0-63.379-18.419-17.51-48.294-17.51-66.717 0l-289.658 275.185c-9.202 8.749-13.801 20.218-13.801 31.684z" />
<glyph unicode="&#xe917;" glyph-name="close-popup" d="M256.006 764.344l256.002-256 256 256 60.339-60.34-256-256 256-256-60.339-60.339-256 256-256.002-256-60.34 60.339 255.998 256-255.998 256 60.34 60.34z" />
<glyph unicode="&#xe918;" glyph-name="ezugi" d="M751.211 620.848c20.348 0.201 40.179 6.418 57.003 17.869s29.879 27.624 37.53 46.481c7.65 18.857 9.545 39.556 5.453 59.49s-13.99 38.212-28.454 52.531c-14.46 14.319-32.832 24.038-52.804 27.935s-40.653 1.797-59.435-6.036c-18.782-7.833-34.825-21.050-46.11-37.983s-17.31-36.827-17.31-57.177c0.465-27.377 11.614-53.489 31.070-72.756s45.675-30.16 73.058-30.354zM133.667 115.597h447.671v146.769h-291.75v103.667h263.282v142.187h-263.282v107.343h291.711v142.188h-447.614l-0.018-642.153z" />
<glyph unicode="&#xe919;" glyph-name="vivogaming" d="M512 21.333c235.639 0 426.667 191.027 426.667 426.667 0 235.642-191.027 426.667-426.667 426.667-235.642 0-426.667-191.025-426.667-426.667 0-235.639 191.025-426.667 426.667-426.667zM541.837 770.956l238.925-137.964c4.557-2.627 8.751-5.846 12.467-9.572l-281.259-162.381-281.259 162.351c3.715 3.736 7.907 6.965 12.469 9.602l238.924 137.964c9.079 5.242 19.383 8.003 29.867 8.003s20.787-2.76 29.867-8.003zM512.051 603.88c-11.575 0-22.989 2.74-33.306 7.997-18.475 10.662-18.667 27.984-0.316 38.646 10.355 5.257 21.803 7.997 33.412 7.997 11.614 0 23.061-2.74 33.412-7.997 4.032-1.37 7.535-3.966 10.018-7.424s3.823-7.605 3.836-11.862c0.013-4.257-1.306-8.412-3.772-11.883s-5.952-6.085-9.975-7.477c-10.317-5.257-21.73-7.997-33.31-7.997zM215.663 597.632l281.395-162.41v-325.534c-5.235 1.335-10.257 3.379-14.933 6.080l-238.926 137.933c-9.076 5.239-16.613 12.774-21.855 21.85s-8.005 19.366-8.010 29.845v275.9c0.017 5.527 0.801 11.025 2.33 16.336zM280.605 428.292c-8.113 5.257-14.863 12.365-19.697 20.736s-7.612 17.771-8.108 27.422c0 17.651 12.543 24.759 27.999 15.846 8.073-5.252 14.79-12.335 19.604-20.676s7.588-17.702 8.097-27.319c-0.045-17.771-12.529-24.849-27.895-16.009zM347.728 309.935c-8.114 5.261-14.865 12.369-19.698 20.745-4.834 8.371-7.612 17.775-8.107 27.43 0 17.634 12.529 24.759 27.984 15.829 8.079-5.244 14.803-12.326 19.62-20.672 4.817-8.341 7.591-17.702 8.096-27.324-0.090-17.754-12.573-24.862-27.895-16.009zM414.806 191.595c-8.113 5.257-14.863 12.361-19.696 20.732-4.834 8.375-7.613 17.771-8.108 27.426 0 17.651 12.529 24.759 27.984 15.842 8.077-5.248 14.8-12.331 19.613-20.672 4.817-8.341 7.595-17.702 8.102-27.319-0.090-17.758-12.587-24.879-27.939-16.009h0.045zM526.942 435.179l281.395 162.453c1.527-5.311 2.313-10.809 2.33-16.336v-275.87c0-10.483-2.761-20.783-8.004-29.862-5.239-9.079-12.783-16.619-21.862-21.862l-238.925-137.98c-4.676-2.697-9.698-4.74-14.933-6.076v325.534zM648.166 404.834c-0.043 17.754-12.527 24.909-27.981 15.949h0.030c-8.115-5.269-14.865-12.39-19.699-20.77-4.838-8.38-7.62-17.783-8.124-27.447 0.060-17.634 12.651-24.7 28.002-15.829 8.102 5.252 14.844 12.348 19.674 20.71 4.826 8.358 7.603 17.745 8.098 27.388zM592.738 244.501c0.043-17.651 12.634-24.7 27.985-15.842h0.030c8.090 5.252 14.822 12.343 19.652 20.693 4.83 8.354 7.616 17.728 8.137 27.358-0.060 17.758-12.544 24.909-27.998 15.949-8.107-5.261-14.852-12.369-19.686-20.74s-7.616-17.766-8.119-27.418zM759.701 469.21c-0.060 17.754-12.544 24.909-27.998 15.949-8.090-5.265-14.818-12.365-19.631-20.727-4.813-8.367-7.582-17.749-8.073-27.388 0.047-17.634 12.531-24.755 27.895-15.889 8.102 5.248 14.844 12.335 19.678 20.689 4.83 8.354 7.616 17.732 8.128 27.366zM704.358 308.919c0.060-17.634 12.544-24.755 27.895-15.885 8.102 5.239 14.848 12.331 19.682 20.681 4.83 8.354 7.616 17.732 8.124 27.371-0.047 17.758-12.527 24.909-27.985 15.949-8.094-5.257-14.822-12.361-19.644-20.723-4.817-8.363-7.582-17.749-8.073-27.392z" />
<glyph unicode="&#xe91a;" glyph-name="evolution" d="M246.279 739.499v0c53.849-124.992 111.46-258.718 380.349-267.524l0.286 0.529c34.193-1.25 71.539 0.021 112.674 3.183-5.713 83.125-32.994 152.292-73.6 205.597l-0.017 0.115c-100.267 131.365-282.401 168.807-432.805 88.211 4.42-9.932 8.754-19.993 13.113-30.11zM668.902 648.016c0.158-3.916 0.243-7.844 0.243-11.771l-2.854 42.567c1.254-10.393 2.193-20.522 2.611-30.796zM696.435 80.96c-19.038 0-34.27 15.228-34.27 34.266s15.232 34.27 34.27 34.27c19.038 0 34.27-15.232 34.27-34.27s-15.232-34.266-34.27-34.266zM696.435 157.747c-23.484 0-42.522-19.038-42.522-43.153 0-23.484 19.038-43.157 42.522-43.157 23.479 0 43.153 19.042 43.153 43.157-0.636 24.115-19.674 43.153-43.153 43.153zM679.936 122.206h-6.349v4.446h18.406v-4.446h-6.349v-18.402h-5.709v18.402zM693.897 126.016h8.247l3.81-14.596 4.442 14.596h8.252v-22.212h-5.077v17.771l-5.713-17.771h-4.442l-5.713 17.771v-17.771h-4.442v22.212h0.636zM304.589 297.967c50.804 78.391 133.329 141.525 307.366 150.387-18.615-27.921-41.254-52.937-67.089-74.236 25.865 21.295 48.533 46.336 67.166 74.283 38.076 1.903 79.962 1.267 127.556-1.907-20.941-288.111-294.46-407.42-506.422-294.46 4.809 10.748 9.491 21.653 14.202 32.627 16.428 38.263 33.202 77.333 56.875 113.335 0.115-0.009 0.23-0.017 0.346-0.030z" />
<glyph unicode="&#xe91b;" glyph-name="instant-games" d="M629.171 615.625c-138.654 0-251.478-112.807-251.478-251.427 13.845-333.525 489.144-333.444 502.938 0 0 138.62-112.806 251.427-251.46 251.427zM604.028 381.632h50.287c41.583 0 75.426-33.86 75.426-75.43s-33.843-75.426-75.426-75.426h-8.384v-33.523c0-4.446-1.762-8.713-4.907-11.853-3.145-3.145-7.407-4.911-11.853-4.911s-8.708 1.766-11.853 4.911c-3.145 3.14-4.911 7.407-4.911 11.853v33.523h-67.046c-4.446 0-8.708 1.766-11.853 4.907-3.14 3.145-4.907 7.407-4.907 11.853s1.766 8.708 4.907 11.853c3.145 3.145 7.407 4.911 11.853 4.911h108.954c23.095 0 41.903 18.79 41.903 41.903 0 23.117-18.807 41.903-41.903 41.903h-50.287c-41.604 0-75.426 33.826-75.426 75.43s33.822 75.426 75.426 75.426h8.38v33.527c0 4.443 1.766 8.707 4.911 11.85s7.407 4.91 11.853 4.91c4.446 0 8.708-1.766 11.853-4.91s4.907-7.407 4.907-11.85v-33.527h67.051c4.446 0 8.708-1.762 11.853-4.907 3.14-3.145 4.907-7.407 4.907-11.853s-1.766-8.708-4.907-11.853c-3.145-3.145-7.407-4.911-11.853-4.911h-108.954c-23.113 0-41.903-18.807-41.903-41.903 0-23.1 18.79-41.903 41.903-41.903zM915.84 567.852l27.49 27.489c12.975 12.538 12.907 34.982 0 47.436l-35.537 35.535c-12.467 12.873-34.897 12.974-47.433 0l-27.49-27.489c-43.157 30.758-92.753 51.28-145.024 60.007v55.649c21.355-2.665 41.856 10.795 41.903 33.524v50.286c0 18.438-15.083 33.524-33.523 33.524h-134.093c-18.441 0-33.523-15.086-33.523-33.524v-50.286c0.115-22.863 20.45-36.088 41.903-33.524v-55.649c-53.303-8.884-102.601-29.836-145.023-60.007l-27.489 27.489c-12.706 12.84-34.529 13.242-47.436 0l-35.535-35.535c-12.89-12.454-12.974-34.898 0-47.436l27.489-27.489c-15.253-21.455-28.16-44.921-38.385-69.561h-244.974c-21.707-0.303-22.277-33.088 0-33.523h239.057c22.109-0.418 21.958-33.122 0-33.523h-14.583c-3.352-16.26-4.861-33.19-5.699-50.287h-151.695c-21.757-0.252-22.226-33.122 0-33.523h167.635c9.219 0 16.762-7.543 16.762-16.764 0-9.216-7.543-16.759-16.762-16.759h-13.074c2.347-17.097 6.202-34.027 11.063-50.287h-98.56c-9.219 0-16.762-7.543-16.762-16.759 0-9.22 7.543-16.764 16.762-16.764h138.452c9.219 0 16.762-7.543 16.762-16.759 0-9.22-7.543-16.764-16.762-16.764h-12.068c59.689-109.79 176.033-184.38 309.473-184.38 283.277-2.581 452.753 328.649 286.677 555.654zM629.18 79.245c-157.073 0-284.984 127.893-284.984 284.954 15.924 378.077 554.113 377.977 569.985 0 0-157.060-127.91-284.954-285.001-284.954z" />
<glyph unicode="&#xe91c;" glyph-name="dial" d="M880.905 707.349l38.891 38.89-171.098 171.094-38.886-38.891 38.106-38.107-52.365-52.367c-63.172 43.873-137.207 67.032-214.562 67.032-207.734 0-376.74-169.006-376.74-376.741s169.006-376.742 376.74-376.742c207.735 0 376.742 169.007 376.742 376.742 0 77.495-23.236 151.64-67.255 214.88l52.318 52.318 38.11-38.108zM654.596 739.027c48.107 0 87.245-39.136 87.245-87.241s-39.138-87.241-87.245-87.241c-48.102 0-87.241 39.136-87.241 87.241s39.134 87.241 87.241 87.241zM162.337 536.174c0 48.105 39.136 87.241 87.241 87.241s87.241-39.136 87.241-87.241c0-48.106-39.136-87.24-87.241-87.24s-87.241 39.134-87.241 87.24zM480.99 159.902c-48.102 0-87.24 39.138-87.24 87.241 0 48.107 39.138 87.241 87.24 87.241 48.107 0 87.241-39.134 87.241-87.241 0-48.102-39.134-87.241-87.241-87.241zM717.359 310.037l-178.47 103.040c-15.415-13.709-35.695-22.059-57.899-22.059-22.272 0-42.615 8.401-58.050 22.187l-178.697-103.168-27.5 47.629 178.752 103.202c-1.162 5.722-1.747 11.55-1.745 17.391 0 38.426 24.983 71.106 59.554 82.709v206.43h54.997v-206.301c34.765-11.491 59.93-44.271 59.93-82.837 0.004-5.909-0.593-11.802-1.783-17.587l178.411-103.006-27.499-47.629zM480.99 446.016c17.809 0 32.243 14.438 32.243 32.243s-14.434 32.239-32.243 32.239c-17.805 0-32.239-14.434-32.239-32.239s14.434-32.243 32.239-32.243zM654.575 619.549c17.805 0 32.239 14.435 32.239 32.241s-14.434 32.241-32.239 32.241c-17.805 0-32.243-14.435-32.243-32.241s14.438-32.241 32.243-32.241zM281.815 536.176c0 17.778-14.463 32.241-32.241 32.241s-32.241-14.463-32.241-32.241c0-17.78 14.463-32.24 32.241-32.24s32.241 14.46 32.241 32.24zM480.99 214.903c17.809 0 32.243 14.434 32.243 32.239 0 17.809-14.434 32.243-32.243 32.243-17.805 0-32.239-14.434-32.239-32.243 0-17.805 14.434-32.239 32.239-32.239zM481.028 46.524c-72.906 0-143.046 17.971-205.389 51.78l-16.056-119.633h442.569l-16.034 119.462c-62.268-33.698-132.297-51.61-205.090-51.61z" />
<glyph unicode="&#xe91d;" glyph-name="other-games" d="M885.739 255.514l119.821 119.812-119.821 119.821 19.307 19.307c33.404 33.403 33.404 87.748 0.009 121.151-16.183 16.175-37.7 25.087-60.582 25.087-22.878 0-44.395-8.912-60.57-25.087l-19.307-19.306-119.821 119.82-35.354-35.364v-55.889c62.541-14.903 109.197-71.255 109.197-138.297s-46.656-123.396-109.197-138.291v-173.299h-103.727l-20.676-20.681 159.761-159.757 119.821 119.825 16.64-16.649c33.399-33.404 87.744-33.404 121.148 0s33.399 87.748 0 121.152l-16.649 16.644zM552.896 251.469v169.455h23.531c47.241 0 85.666 38.426 85.666 85.666 0 47.237-38.426 85.662-85.666 85.662h-23.531v169.449h-169.449v27.296c-0.002 47.241-38.428 85.669-85.67 85.669-47.234 0-85.66-38.428-85.66-85.669v-27.296h-169.451v-169.451h23.537c41.446 0 76.103-29.581 83.979-68.743 3.546-4.928 5.454-10.85 5.454-16.922s-1.908-11.994-5.454-16.922c-7.876-39.155-42.533-68.745-83.979-68.745h-23.537v-169.451h169.449v27.307c0 47.236 38.428 85.662 85.662 85.662 47.242 0 85.67-38.426 85.67-85.662v-27.307h169.449z" />
<glyph unicode="&#xe91e;" glyph-name="quick-games" d="M961.613 835.412c61.606-73.059-33.114-283.742-119.356-381.934-28.723-32.687-71.945-72.444-129.66-119.364 11.051-8.593-15.885-166.097-45.858-200.307-31.326-36.937-74.513-70.95-124.087-109.38-9.459-7.36-22.302-0.418-27.639 8.593-7.91 13.231-29.333 120.469-22.404 138.859-97.696 40.759-168.897 89.306-213.469 145.728-44.573 56.427-76.642 129.775-96.005 220.087-23.959 0.811-122.194 54.187-133.008 64.466-7.671 7.361-11.354 20.981-1.487 27.953 51.432 36.125 96.849 67.19 142.165 86.776 38.355 17.155 183.122 4.021 208.365-5.804l2.602-1.265 17.065 12.193c50.317 35.638 92.894 62.942 127.838 81.75 120.401 64.985 353.335 104.741 414.938 31.682v-0.032zM176.781 377.924l0.642-1.818c6.117-17.088 57.11-150.724 168.76-186.394l-205.865-35.674c-28.183-0.128-48.83 25.361-41.666 51.529l78.128 172.356zM515.418 697.465c-37.239-93.035 11.251-197.386 108.1-233.089 96.951-35.738 205.696 10.799 242.901 103.735 37.239 93.035-11.251 197.388-108.1 233.091-96.951 35.735-205.696-10.799-242.901-103.736zM736.149 747.825c64.678-23.802 96.951-93.359 72.149-155.394-24.806-62.033-97.259-93.035-161.937-69.231-64.678 23.8-96.951 93.325-72.145 155.392 24.802 62.066 97.254 93.035 161.933 69.233z" />
<glyph unicode="&#xe91f;" glyph-name="lottery" d="M615.313 426.594c-112.073 0-203.253-91.196-203.253-203.294 10.219-269.325 396.329-269.252 406.509 0.004 0 112.094-91.179 203.29-203.255 203.29zM655.543 187.998c33.186-1.233 33.161-48.858 0-50.078h-80.457c-13.828 0-25.041 11.209-25.041 25.037 0 26.581 24.853 42.159 48.887 57.22 10.022 6.285 28.471 17.847 31.552 24.030-0.414 8.009-7.061 14.4-15.172 14.4-11.942 0-14.985-4.459-15.748-7.113-7.556-32.337-54.298-23.211-49.156 9.574 2.833 16.469 20.045 47.616 64.905 47.616 35.989 0 65.271-29.282 65.271-65.271 0-24.623-19.063-41.737-39.164-55.42l14.123 0.004zM490.513 551.315c0 112.097-91.177 203.294-203.252 203.294-269.274-10.219-269.201-396.409 0.003-406.589 112.072 0 203.249 91.2 203.249 203.296zM312.3 497.677c-1.232-33.186-48.858-33.161-50.077 0v55.482c-3.58-0.261-7.174 0.254-10.536 1.508s-6.415 3.22-8.949 5.761c-9.778 9.777-9.778 25.632 0 35.41l26.818 26.819c3.502 3.502 7.963 5.887 12.82 6.853s9.891 0.471 14.467-1.425c4.575-1.895 8.486-5.104 11.237-9.222s4.22-8.958 4.22-13.911v-107.276zM735.411 874.667c-112.073 0-203.255-91.197-203.255-203.294 10.223-269.325 396.335-269.257 406.511 0.003 0 112.094-91.179 203.29-203.255 203.29zM800.444 715.177c-11.11-16.96-39.991-69.271-39.991-106.924 0-13.828-11.213-25.039-25.041-25.039s-25.037 11.211-25.037 25.039c0 32.996 13.786 69.137 26.628 95.648h-37.931c-33.19 1.232-33.165 48.858 0 50.078h80.457c19.665 0.227 31.915-22.507 20.915-38.802z" />
<glyph unicode="&#xe920;" glyph-name="fish" d="M963.243 769.633c-61.858 8.085-123.686 14.508-185.975 6.654l-76.463-11.336c-140.698-27.391-257.553-99.273-349.265-217.502-7.445-9.594-14.782-14.432-26.83-15.319-63.552-4.642-125.268-18.842-184.252-45.188-33.736-15.049-66.644-31.919-97.791-57.062 139.727-7.778 250.249-36.757 282.115-74.709-14.206 3.366-26.83 6.383-39.49 9.289-37.152 8.508-38.879 7.155-43.842-33.894-14.818-122.253 79.772-212.663 194.468-186.125 51.358 11.878 97.899 36.599 144.222 61.862 9.783 5.338 13.884 3.947 19.529-5.572 21.397-36.211 35.93-75.285 44.561-116.992 4.028-19.537 7.339-39.266 11.618-62.4 41.25 73.387 67.721 148.326 74.59 230.306 1.907 22.707 6.729 40.35 25.033 55.71 72.977 61.244 126.78 139.354 165.948 229.186 29.167 66.891 46.899 137.264 52.796 210.887 0.721 8.937 5.611 20.079-10.97 22.245v-0.038zM612.399 697.635c0 0 0 0 0.034 0 0.542 0.348 1.152 0.619 1.835 0.851 20.177 9.285 59.418 2.708 69.99-1.664 10.897-4.488 10.5-7.157 10.5-7.157-4.42-22.4-23.915-40.119-44.74-40.506-18.556-0.348-33.591 12.689-39.236 32.459-2.449 8.511-2.014 13.657 1.617 15.978v0.039zM839.198 494.217c0 13.888 0.252 23.599-0.034 33.271-0.934 30.523-19.17 49.828-47.62 51.531-34.598 2.089-65.818-9.053-96.137-25.882-42.116-23.404-78.007-54.124-107.968-100.896 21.581 9.050 38.771 16.478 56.107 23.522 31.936 12.919 64.559 18.453 98.581 10.829 11.366-2.551 21.687-6.848 31.219-13.692 8.666-4.22 13.38-10.871 11.614-21.551 2.522-20.117-4.599-35.708-17.801-49.907-42.334-45.495-87.326-86.43-147.605-101.013-51.213-12.42-95.309 4.834-130.551 44.531-50.714 57.101-69.812 127.202-66.431 205.314 0.719 16.829 6.868 27.739 23.197 33.271-3.093-54.551 4.425-106.199 29.709-154.169 15.539 17.796 16.077 18.065 7.731 37.525-17.476 40.738-16.145 83.875-15.104 127.012 0.358 14.431 11.977 16.945 22.298 24.102-1.941-49.404-0.358-95.985 22.050-140.051 109.406 120.282 235.43 197.734 397.956 191.428-13.807-63.525-37.978-118.887-71.172-175.138l-0.038-0.038z" />
<glyph unicode="&#xe921;" glyph-name="wallet" d="M848.137 621.241h-590.838c-15.168 0-27.429 12.596-27.429 28.116s12.261 28.116 27.429 28.116h481.974v105.437c0 14.986-6.554 28.96-17.967 38.323-11.465 9.419-26.304 12.821-40.457 9.559l-515.491-118.651c-21.97-5.061-37.358-24.771-37.358-47.883v-551.167c0-27.051 21.477-49.092 47.863-49.092h672.273c26.385 0 47.863 22.016 47.863 49.092v459.085c0 27.048-21.478 49.063-47.863 49.063zM761.766 292.501c-25.647 0-46.494 21.397-46.494 47.689 0 26.287 20.873 47.684 46.494 47.684 25.673 0 46.515-21.397 46.515-47.684 0-26.291-20.843-47.689-46.515-47.689z" />
<glyph unicode="&#xe922;" glyph-name="recent" d="M113.778 595.982v193.351c0 15.701 12.743 28.445 28.444 28.445s28.445-12.743 28.445-28.445l0.015-85.405c77.867 103.652 201.813 170.738 341.319 170.738 235.477 0 426.667-191.189 426.667-426.667s-191.189-426.667-426.667-426.667c-235.477 0-426.667 191.189-426.667 426.667 0 15.701 12.743 28.446 28.445 28.446s28.444-12.745 28.444-28.446c0-204.087 165.689-369.779 369.778-369.779 204.087 0 369.779 165.692 369.779 369.779 0 204.089-165.692 369.778-369.779 369.778-155.549 0-288.782-96.256-343.381-232.391-5.063-12.643-18.403-19.925-31.787-17.337s-23.054 14.293-23.054 27.932zM256 448c0-141.291 114.735-256 256-256s256 114.709 256 256c0 141.289-114.735 256-256 256s-256-114.711-256-256zM535.275 457.634l74.586-74.637c9.079-9.075 9.079-23.829 0-32.905-9.075-9.088-23.735-9.088-32.815 0l-81.455 81.455c-4.42 4.361-6.865 10.287-6.865 16.452v186.182c0 12.847 10.475 23.273 23.275 23.273s23.275-10.426 23.275-23.273v-176.548z" />
<glyph unicode="&#xe923;" glyph-name="all-game" d="M493.777 386.543c0 17.173-6.818 33.63-18.961 45.756-6.007 6.012-13.137 10.786-20.992 14.037-7.851 3.255-16.265 4.928-24.764 4.924h-151.009c-17.172 0-33.632-6.814-45.756-18.961-6.014-6.007-10.784-13.137-14.038-20.988-3.254-7.855-4.927-16.269-4.924-24.768v-151.010c0-17.169 6.817-33.63 18.962-45.756 6.005-6.012 13.138-10.782 20.989-14.037 7.851-3.251 16.267-4.924 24.766-4.924h151.009c17.169 0 33.63 6.818 45.756 18.961 6.012 6.007 10.782 13.141 14.037 20.992s4.928 16.269 4.924 24.764v151.010zM817.365 386.543c0 17.173-6.814 33.63-18.961 45.756-6.003 6.012-13.137 10.786-20.988 14.037-7.851 3.255-16.269 4.928-24.768 4.924h-151.006c-17.173 0-33.634-6.814-45.756-18.961-6.016-6.007-10.786-13.137-14.042-20.988-3.251-7.855-4.924-16.269-4.924-24.768v-151.010c0-17.169 6.818-33.63 18.965-45.756 6.003-6.012 13.137-10.782 20.988-14.037 7.851-3.251 16.269-4.924 24.768-4.924h151.006c17.173 0 33.634 6.818 45.756 18.961 6.016 6.007 10.786 13.141 14.037 20.992 3.255 7.851 4.928 16.269 4.924 24.764v151.010zM722.901 498.871l90.001 90.001c12.13 12.136 18.948 28.594 18.948 45.755s-6.818 33.619-18.948 45.756l-90.001 90.001c-12.139 12.133-28.595 18.949-45.756 18.949s-33.621-6.816-45.756-18.949l-90.001-90.001c-12.134-12.137-18.948-28.595-18.948-45.756s6.814-33.619 18.948-45.755l90.001-90.001c12.134-12.134 28.595-18.948 45.756-18.948s33.617 6.814 45.756 18.948zM493.777 710.132c0 17.172-6.818 33.632-18.961 45.756-6.007 6.013-13.137 10.784-20.992 14.038-7.851 3.254-16.265 4.927-24.764 4.925h-151.009c-17.172 0-33.632-6.817-45.756-18.962-6.014-6.006-10.784-13.138-14.038-20.989s-4.927-16.268-4.924-24.766v-151.008c0-17.172 6.817-33.633 18.962-45.754 6.005-6.016 13.138-10.786 20.989-14.037 7.851-3.255 16.267-4.928 24.766-4.928h151.009c17.169 0 33.63 6.818 45.756 18.965 6.012 6.003 10.782 13.137 14.037 20.988s4.928 16.268 4.924 24.766v151.008z" />
<glyph unicode="&#xe924;" glyph-name="info" d="M828.13 730.69c-54.844 63.408-173.022 101.31-316.062 101.31h-0.038c-143.064 0-261.24-37.865-316.102-101.31-91.018-105.292-91.018-384.467 0.018-489.794 18.127-19.823 39.517-36.39 63.239-48.986l12.791-76.894c2.102-12.676 7.35-24.627 15.263-34.756s18.238-18.112 30.033-23.219c11.794-5.107 24.681-7.177 37.482-6.020s25.107 5.504 35.793 12.646l105.104 70.093c6.421 4.139 13.922 6.298 21.564 6.199 140.826 0.939 257.050 38.69 310.916 100.971 91.017 105.293 91.017 384.468 0 489.76zM512.030 687.755c9.506 0 18.803-2.82 26.709-8.103 7.91-5.283 14.071-12.793 17.711-21.579s4.591-18.453 2.735-27.78c-1.856-9.327-6.434-17.894-13.158-24.619s-15.292-11.304-24.619-13.159c-9.327-1.855-18.995-0.903-27.78 2.736s-16.294 9.802-21.577 17.709c-5.286 7.907-8.107 17.203-8.107 26.713 0 6.314 1.246 12.567 3.661 18.4s5.956 11.134 10.423 15.599c4.463 4.465 9.766 8.006 15.599 10.423s12.087 3.66 18.402 3.66zM550.494 274.253h-76.932c-10.202 0-19.985 4.049-27.2 11.264-7.211 7.215-11.264 16.998-11.264 27.2s4.053 19.985 11.264 27.2c7.215 7.211 16.998 11.264 27.2 11.264v115.396c-10.202 0-19.985 4.053-27.2 11.268-7.211 7.215-11.264 16.998-11.264 27.2s4.053 19.985 11.264 27.196c7.215 7.215 16.998 11.268 27.2 11.268h38.468c5.052 0.001 10.052-0.993 14.72-2.926s8.909-4.766 12.48-8.338c3.571-3.571 6.404-7.812 8.337-12.48s2.927-9.668 2.927-14.72v-153.865c10.202 0 19.985-4.053 27.2-11.264 7.211-7.215 11.264-16.998 11.264-27.2s-4.053-19.985-11.264-27.2c-7.215-7.215-16.998-11.264-27.2-11.264z" />
<glyph unicode="&#xe925;" glyph-name="news" d="M721.455 832h-279.275c-40.236 0.008-79.242-13.886-110.412-39.332s-52.593-60.879-60.64-100.305h-3.491c-37.034 0-72.551-14.711-98.738-40.899s-40.899-61.704-40.899-98.737v-314.182c0-22.921 4.515-45.619 13.286-66.795s21.629-40.418 37.837-56.627c32.733-32.734 77.13-51.123 123.422-51.123h488.729c27.772 0 54.413 11.034 74.052 30.673s30.673 46.281 30.673 74.052v488.729c0 22.922-4.514 45.619-13.286 66.796s-21.628 40.419-37.837 56.627c-16.209 16.208-35.452 29.065-56.627 37.837s-43.874 13.286-66.795 13.286zM581.82 273.455h-279.274c-9.259 0-18.138 3.678-24.684 10.223-6.547 6.549-10.225 15.428-10.225 24.687s3.678 18.138 10.225 24.683c6.547 6.549 15.426 10.227 24.684 10.227h279.274c9.259 0 18.138-3.678 24.683-10.227 6.545-6.545 10.223-15.424 10.223-24.683s-3.678-18.138-10.223-24.687c-6.545-6.545-15.424-10.223-24.683-10.223zM581.82 413.090h-279.274c-9.259 0-18.138 3.678-24.684 10.227-6.547 6.545-10.225 15.424-10.225 24.683s3.678 18.138 10.225 24.683c6.547 6.549 15.426 10.227 24.684 10.227h279.274c9.259 0 18.138-3.678 24.683-10.227 6.545-6.545 10.223-15.424 10.223-24.683s-3.678-18.138-10.223-24.683c-6.545-6.549-15.424-10.227-24.683-10.227zM826.18 168.725c0-9.259-3.678-18.138-10.223-24.683s-15.424-10.223-24.683-10.223c-9.259 0-18.138 3.678-24.687 10.223-6.545 6.545-10.223 15.424-10.223 24.683v384.002c0 37.034-14.711 72.551-40.9 98.737-26.185 26.187-61.705 40.899-98.739 40.899h-272.987c7.202 20.371 20.529 38.016 38.153 50.516s38.684 19.242 60.289 19.303h279.275c27.776 0 54.413-11.034 74.052-30.674s30.673-46.278 30.673-74.054v-488.729z" />
<glyph unicode="&#xe926;" glyph-name="trending" d="M512 832c-212.070 0-384-171.93-384-384s171.93-384 384-384c212.070 0 384 171.93 384 384s-171.93 384-384 384zM732.275 483.789l-98.773-96.286 23.309-136.004c0.388-2.244 0.277-4.548-0.32-6.75-0.597-2.197-1.664-4.241-3.136-5.986-1.468-1.741-3.298-3.145-5.367-4.105-2.065-0.96-4.318-1.459-6.596-1.459-2.539-0.004-5.035 0.614-7.275 1.801l-122.116 64.26-122.1-64.26c-2.585-1.361-5.499-1.971-8.413-1.762s-5.711 1.229-8.075 2.948c-2.364 1.715-4.199 4.062-5.299 6.767-1.1 2.709-1.419 5.67-0.922 8.546l23.31 136.004-98.79 96.286c-2.090 2.039-3.569 4.621-4.268 7.454s-0.592 5.807 0.31 8.585c0.902 2.778 2.563 5.244 4.794 7.125s4.945 3.102 7.834 3.524l136.501 19.844 61.065 123.689c1.293 2.615 3.29 4.817 5.769 6.357s5.338 2.355 8.256 2.355c2.918 0 5.777-0.816 8.256-2.355s4.476-3.741 5.769-6.357l61.065-123.689 136.499-19.844c2.889-0.422 5.602-1.643 7.834-3.524 2.236-1.882 3.895-4.348 4.796-7.125 0.905-2.778 1.011-5.751 0.311-8.585s-2.18-5.414-4.271-7.454h0.047z" />
<glyph unicode="&#xe927;" glyph-name="game-card" d="M591.543 874.322c0.614-0.167 1.263-0.302 1.907-0.402 118.916-52.536 224.666-105.843 333.359-165.114 5.888-2.747 10.125-9.783 11.388-17.858 0.777-4.657 0.58-9.415-0.516-14.005-62.63-243.514-163.657-462.774-289.818-647.217-3.657-5.999-10.449-9.216-17.276-8.209-3.008 0.636-5.692 2.313-7.667 4.723-87.437 92.407-181.478 178.014-281.338 256.111-1.844 1.374-3.397 3.119-4.626 5.094-1.197 2.18-2.103 4.523-2.685 6.938-1.1 4.689-0.227 9.613 2.394 13.602 99.926 152.951 186.458 342.054 235.794 552.499 1.033 4.925 3.977 9.181 8.183 11.794 3.204 2.178 7.151 2.948 10.901 2.044zM385.027 855.76l3.947-0.838 1.908-0.938c48.849-25.866 94.524-49.42 139.52-72.539-16.141-55.887-35.486-112.175-58.065-168.765-5.175-13-11.029-27.038-17.438-41.814-19.021-3.183-36.165-13.972-46.84-32.165-11.128-18.965-12.001-39.535-12.26-49.954-54.799 21.406-102.255 3.183-115.227-31.932-10.967-29.751-6.179-67.511 28.208-86.31 6.567-3.584 19.895-7.671 36.231-9.212l-9.899-15.044c-12.39-18.261-40.113-51.499-18.374-69.76 57.905-48.649 114.938-97.165 150.36-127.987 2.62-2.278 5.141-4.39 7.633-6.4-20.446-32.367-41.084-63.492-61.786-92.945-4.399-6.635-17.63-12.062-28.209-5.628-83.267 76.693-171.968 151.241-261.769 214.699l-29.955 20.74-0.971 0.939c-3.267 3.017-5.532 6.972-6.405 11.26-0.873 4.791 0.162 9.715 2.879 13.769 109.566 157.141 210.496 361.22 278.655 539.334 1.779 4.59 5.338 8.309 9.931 10.319l3.914 1.039 4.012 0.1v0.034zM582.033 550.93c-40.499-16.351-50.014-54.649-48.943-89.759 2.718-45.734 8.41-107.383 14.362-148.629 0.162-1.643 0.841-2.85 2.005-3.686s2.816-0.802 4.497-0.401c43.153 13.167 73.852 24.422 109.726 41.579 35.878 17.156 82.59 35.081 92.587 88.789 4.979 26.637-11.452 52.702-27.853 60.877-11.648 7.339-39.565 9.382-58.261-3.652-1.681-0.802-3.332-0.836-4.497 0-1.165 0.841-2.005 2.044-2.005 3.686 2.005 23.825-12.681 40.14-25.169 47.042-12.971 6.902-37.457 11.861-56.482 4.188l0.034-0.033zM614.511 778.296c-8.41-17.758-17.114-35.247-26.138-52.402l-13.781-25.497 23.842-10.889 4.527 8.812 16.013-7.471-0.905-10.554 12.228-5.763 12.032-6.031c2.492 20.773 4.659 41.814 6.571 62.923l2.62 31.662-37.009 15.212zM440.213 763.119c-6.34-12.765-16.465-31.194-22.611-44.16-2.556-5.193-4.335-8.879-5.597-11.224s-3.138-4.020-6.89-4.020c-2.232 0-4.852 0.737-6.761 1.374l-2.556 0.871c-2.199-4.121-5.564-10.789-9.996-20.003 7.311-2.982 13.748-4.825 19.313-5.562 8.346-1.106 15.592-0.369 20.024 1.843 4.821 2.58 9.058 6.668 11.84 11.392l1.813 3.652 26.138 54.513-5.534 2.446-19.183 8.879zM625.284 747.371l2.62-1.24-2.069-15.647-2.526-15.948-10.449 4.69 12.425 28.145z" />
<glyph unicode="&#xe928;" glyph-name="slots" d="M694.391 789.333c38.929 0 73.673-46.303 96.384-118.762l0.286 0.028 3.61-13.412c28.74-113.725 26.748-273.81-12.322-413.356-22.451-58.381-53.589-94.498-87.987-94.498l-2.108 0.141 0.030-0.141-364.204 0.222c-32.147 3.119-61.148 37.845-82.474 92.467l-0.317 0.026c-31.021 139.772-32.666 305.81-9.984 420.426l3.030 14.275h0.144c22.307 67.618 55.348 110.97 92.314 112.529v0.055h363.6zM222.549 676.777c-21.845-71.151-31.916-144.89-30.127-221.161 1.616-70.848 12.784-138.547 33.503-203.102l3.463-10.381h-20.719c-30.906 0-54.569 44.966-67.18 109.107-32.782 16.277-56.156 58.88-56.156 108.855 0 49.306 22.739 91.38 54.8 108.187 12.235 64.918 36.504 108.522 68.593 108.522h13.88l-0.058-0.028zM818.94 670.544c30.037-3.673 55.983-43.743 70.033-105.294 29.38-18.365 49.694-58.575 49.694-105.154 0-45.858-19.682-85.538-48.247-104.32-12.928-61.692-37.572-103.317-66.577-110.694l-4.877-0.887-0.055-0.307-21.99-0.030 5.107 12.663c22.711 59.409 35.554 124.075 38.438 194.001 3.174 76.467-8.397 149.789-34.743 220.050l13.218-0.028zM441.199 595.887l-10.069-3.729-14.834-6.484c-4.098-0.779-6.55 1.503-7.387 6.845s-4.53 8.153-11.081 8.376c-12.322 0-22.509-0.557-30.531-1.697-6.897-0.946-10.446-4.202-10.706-9.711l0.144-2.95-3.319-95.025c-0.404-3.84 0-6.677 1.241-8.572 0.837-1.28 2.049-2.086 3.607-2.505l2.655-0.277 38.264 0.751c2.222-0.666 4.127-0.333 5.83 1.003 1.097 0.862 2.106 2.227 3.001 3.977l1.212 2.978 5.050 8.431c4.646 7.846 10.822 13.329 18.497 16.418 6.409 2.56 15.066 2.978 26.031 1.28l6.865-1.28 55.492-15.386c14.17-2.172 28.224-2.172 42.133 0 13.909 2.167 26.867 6.647 38.869 13.385-4.181-4.843-10.3-10.351-18.325-16.448-8.021-6.093-18.035-12.855-29.952-20.228-7.501-3.618-15.322-7.791-23.462-12.578-8.137-4.787-16.593-10.155-25.335-16.111-9.203-6.818-17.229-13.747-23.979-20.813-6.754-7.070-12.292-14.221-16.593-21.483-5.598-8.572-10.044-18.505-13.188-29.773-3.145-11.273-5.107-23.932-5.828-37.926-0.491-3.703 0.085-6.455 1.702-8.265 1.212-1.365 3.029-2.146 5.453-2.423l2.628-0.081 134.357-0.252c6.118-0.585 10.359-0.333 12.727 0.725 1.788 0.777 2.564 2.086 2.278 3.81l-0.636 1.894-2.308 12.045c-1.041 8.183-1.502 17.31-1.357 27.383s0.836 21.12 2.163 33.114c1.417 10.377 3.465 20.561 6.089 30.468 2.628 9.907 5.833 19.588 9.583 29.022 3.866 10.295 8.196 20.48 12.983 30.468 4.791 9.993 10.074 19.84 15.757 29.525 3.26 6.485 7.936 14.080 14.054 22.79s13.649 18.505 22.596 29.412c2.078 2.059 3.115 3.896 3.115 5.454 0 1.057-0.461 2.031-1.357 2.894l-1.702 1.196-8.107 3.645-16.683 9.99c-2.308 1.53-4.271 2.087-5.999 1.753-1.732-0.334-3.149-1.614-4.271-3.812-2.048-2.615-4.706-4.786-8.051-6.455-3.349-1.67-7.33-2.838-11.977-3.562-6.289-1.002-12.553-1.53-18.846-1.586-6.289-0.056-12.578 0.39-18.901 1.335-28.885 5.426-55.953 10.379-81.173 14.859-22.076 3.924-44.817 1.948-68.22-5.871h-0.141l-0.060 0.056z" />
<glyph unicode="&#xe929;" glyph-name="schedule" d="M240.5 560.5h-112.5v-224.999h112.5c12.414 0 22.5 10.086 22.5 22.498v180.001c0 12.414-10.086 22.5-22.5 22.5zM489.502 558.223v182.277h-294.002c-37.221 0-67.5-30.279-67.5-67.5v-67.5h112.5c37.221 0 67.5-30.279 67.5-67.5v-180.001c0-37.218-30.279-67.499-67.5-67.499h-112.5v-67.499c0-37.222 30.279-67.503 67.5-67.503h294.002v182.276c-51.29 10.458-90.002 55.902-90.002 110.225s38.712 99.77 90.002 110.223zM783.501 560.5c-12.416 0-22.502-10.086-22.502-22.5v-180.001c0-12.412 10.086-22.498 22.502-22.498h112.499v224.999h-112.499zM512 515.499c-37.222 0-67.499-30.276-67.499-67.499s30.276-67.499 67.499-67.499c37.222 0 67.499 30.276 67.499 67.499s-30.276 67.499-67.499 67.499zM783.501 605.5h112.499v67.5c0 37.221-30.281 67.5-67.499 67.5h-294.003v-182.277c51.29-10.453 90.001-55.9 90.001-110.223s-38.711-99.767-90.001-110.225v-182.276h294.003c37.218 0 67.499 30.281 67.499 67.503v67.499h-112.499c-37.222 0-67.503 30.281-67.503 67.499v180.001c0 37.221 30.281 67.5 67.503 67.5z" />
<glyph unicode="&#xe92a;" glyph-name="live" d="M781.222 570.646l-351.556 199.35c-45.343 25.84-99.224 25.726-144.337 0-45.113-25.613-71.996-71.399-71.996-122.624v-398.813c0-51.115 26.883-97.126 71.996-122.624 22.614-12.924 47.42-19.268 72.111-19.268 24.806 0 49.612 6.345 72.226 19.268l351.556 199.236c45.111 25.724 72.111 71.625 72.111 122.735 0 51.226-26.999 97.127-72.111 122.74z" />
<glyph unicode="&#xe92b;" glyph-name="rank" d="M543.488 770.894c-3.273 6.624-8.623 11.976-15.219 15.274h-0.055c-16.661 8.302-36.911 1.504-45.184-15.158l-77.756-156.397-68.034 67.364c-2.98 2.98-6.597 5.208-10.589 6.597-14.669 5.063-30.669-2.72-35.732-17.389l-35.682-103.297-121.103 61.811c-9.054 4.628-19.7 4.889-28.986 0.723-16.98-7.608-24.559-27.539-16.922-44.52 47.644-107.088 78.567-195.002 92.771-263.704 15.476-74.923 26.151-138.85 31.965-191.791 1.475-13.769 13.104-24.183 26.961-24.124h540.858c13.308 0.085 24.559 9.805 26.556 22.938 10.010 65.378 22.157 129.711 36.48 193.007 13.043 57.741 43.853 146.547 92.365 266.452 3.729 9.112 3.268 19.41-1.276 28.175-8.533 16.518-28.868 22.969-45.385 14.377l-118.528-61.818-35.157 101.777c-5.060 14.669-21.060 22.452-35.729 17.389-3.994-1.389-7.612-3.616-10.59-6.597l-68.659-67.98-77.367 156.891zM416.668 342.997l92.107 134.656 95.313-134.656-95.313-130.261-92.107 130.261z" />
<glyph unicode="&#xe92c;" glyph-name="hot" d="M613.333 781.929l-69.517 75.655 2.709-103.348c0.627-23.915 0.572-46.138-0.128-66.67l-0.913-20.004-1.331-18.894c-8.759-103.93-37.559-155.193-80.542-160.744-64.070-8.269-100.614 16.094-120.398 80.835l-28.125 92.012-43.139-85.855c-63.548-126.471-82.628-235.156-54.425-325.742 45.406-145.894 167.394-219.618 309.766-209.946 130.586 8.879 248.405 87.386 277.231 195.622 46.839 176.017-18.53 359.17-191.164 547.052l-0.026 0.026z" />
<glyph unicode="&#xe92d;" glyph-name="new" d="M901.867 468.506l-116.309 33.237c-52.378 14.767-100.087 42.726-138.569 81.206s-66.441 86.191-81.207 138.569l-33.237 116.309c-1.673 4.069-4.514 7.549-8.171 9.999-3.652 2.449-7.953 3.757-12.352 3.757s-8.7-1.308-12.356-3.757c-3.652-2.449-6.494-5.93-8.166-9.999l-33.237-116.309c-14.767-52.377-42.729-100.089-81.209-138.569s-86.191-66.439-138.568-81.206l-116.309-33.237c-4.466-1.267-8.397-3.959-11.195-7.663s-4.313-8.218-4.313-12.86c0-4.642 1.514-9.161 4.313-12.864s6.729-6.391 11.195-7.659l116.309-33.237c52.377-14.767 100.088-42.731 138.568-81.207 38.48-38.481 66.442-86.191 81.209-138.569l33.237-116.309c1.267-4.467 3.955-8.397 7.659-11.196s8.222-4.314 12.864-4.314c4.642 0 9.156 1.515 12.86 4.314s6.396 6.729 7.663 11.196l33.237 116.309c14.767 52.378 42.726 100.087 81.207 138.569 38.481 38.477 86.191 66.441 138.569 81.207l116.309 33.237c4.463 1.267 8.397 3.955 11.196 7.659s4.314 8.222 4.314 12.864c0 4.642-1.515 9.156-4.314 12.86s-6.733 6.396-11.196 7.663z" />
<glyph unicode="&#xe92e;" glyph-name="promotion" d="M448.060 775.304l61.013 31.378c3.388 1.775 5.197 5.547 4.403 9.287-0.981 4.564-5.453 7.511-10.048 6.561l-84.593-17.654c-24.881-5.198-46.75-21.775-59.746-45.324l-215.781-390.929c-16.165-29.316-7.512-66.21 19.334-82.406 37.115-22.251 64.88-39.049 83.39-50.334 12.963-7.923 13.439-2.091 13.534 2.569s1.014 10.27 1.902 13.628l115.656 433.464c10.459 39.144 36.418 72.012 70.936 89.761zM735.855 803.171l131.819-119.65c17.685-16.038 27.797-38.827 27.797-62.693l0.478-458.029c0.030-31.219-25.263-56.576-56.482-56.606h-282.15c-31.189 0-56.512 25.263-56.546 56.482l-0.474 458.026c-0.034 23.93 10.078 46.782 27.797 62.883l131.755 119.586c21.555 19.556 54.451 19.556 76.006 0zM698.769 685.328c-27.319 0-49.476-23.866-49.476-53.343s22.157-53.343 49.476-53.343c27.324 0 49.476 23.866 49.476 53.343s-22.153 53.343-49.476 53.343zM553.946 766.828l-50.778-46.085c-28.745-26.085-45.321-64.563-45.291-105.070l0.474-448.612v-1.391c-0.013-4.369-0.017-7.552 1.015-13.73 1.143-6.814-1.459-7.479-6.4-6.054-21.965 6.276-54.929 15.817-98.891 28.591-30.142 8.717-48.018 42.091-40 74.577l107.257 433.465c6.464 26.085 23.296 47.796 45.957 59.238l77.146 38.953c4.186 2.124 9.289 0.444 11.379-3.74 1.711-3.392 0.951-7.575-1.869-10.142z" />
<glyph unicode="&#xe92f;" glyph-name="search-game" d="M834.714 206.323l-55.296 55.3c-11.541 11.541-13.969 29.406-5.683 43.465 37.82 64.196 54.895 141.965 41.246 224.299-23.714 143.090-141.76 256.208-285.687 274.201-216.974 27.124-400.161-156.063-373.036-373.038 17.993-143.923 131.111-261.973 274.203-285.687 82.33-13.645 160.102 3.426 224.294 41.246 14.063 8.286 31.927 5.862 43.469-5.679l57.856-57.86c11.204-11.213 25.907-16.819 40.597-16.819 16.085 0 32.188 6.72 43.695 20.169 19.895 23.258 15.983 58.765-5.658 80.405zM271.485 436.215c-24.651 149.099 103.045 276.792 252.137 252.141 90.33-14.933 163.183-87.787 178.116-178.118 24.653-149.094-103.044-276.787-252.139-252.139-90.326 14.938-163.179 87.791-178.115 178.116z" />
<glyph unicode="&#xe930;" glyph-name="table-games" d="M253.425 586.871c23.332 21.953 52.269 37.044 83.625 43.611v70.717c-51.666-7.407-99.601-31.172-136.774-67.811l53.149-46.518zM372.043 704h122.46v-69.978h-122.46v69.978zM651.959 319.117c77.295 0 139.959 62.66 139.959 139.955 0 77.297-62.665 139.958-139.959 139.958h-279.917c-77.295 0-139.962-62.661-139.962-139.958 0-77.295 62.665-139.955 139.962-139.955h279.917zM337.050 287.663c-31.357 6.562-60.294 21.653-83.625 43.61l-53.149-46.515c37.173-36.642 85.108-60.407 136.774-67.81v70.716zM198.863 441.574h-70.857c3.351-47.364 20.496-92.71 49.318-130.445l52.905 46.293c-17.67 24.806-28.488 53.833-31.365 84.151h-0.002zM198.863 476.57c2.876 30.319 13.695 59.342 31.365 84.146l-52.905 46.301c-28.821-37.737-45.967-83.082-49.323-130.447h70.863zM825.135 441.574c-2.876-30.319-13.692-59.345-31.364-84.151l52.915-46.306c28.821 37.743 45.961 83.093 49.314 130.458h-70.865zM529.498 704h122.458v-69.978h-122.458v69.978zM793.771 560.716c17.673-24.804 28.489-53.827 31.364-84.146h70.861c-3.354 47.364-20.497 92.713-49.314 130.452l-52.911-46.307zM372.043 284.122h122.46v-69.978h-122.46v69.978zM529.498 284.122h122.458v-69.978h-122.458v69.978zM770.573 331.273c-23.33-21.952-52.267-37.043-83.622-43.61v-70.716c51.665 7.403 99.601 31.168 136.772 67.81l-53.15 46.515zM686.95 701.199v-70.717c31.356-6.57 60.292-21.66 83.622-43.611l53.15 46.518c-37.171 36.64-85.107 60.405-136.772 67.811z" />
<glyph unicode="&#xe931;" glyph-name="casino" d="M706.722 552.849c-41.237 0-79.415-17.542-106.142-45.76-11.456-12.207-31.309-26.697-52.689-38.135 10.688 38.135 41.233 86.184 63.377 107.54 28.254 27.457 45.056 64.83 45.056 107.541 0 81.61-64.909 147.202-145.088 147.965-80.179-0.763-145.085-66.355-145.085-147.965 0-41.949 16.799-80.084 45.053-107.541 22.145-20.593 53.454-68.645 63.378-107.54-21.38 12.203-40.469 26.692-52.687 38.135-26.726 28.218-64.143 45.76-106.141 45.76-79.415 0-145.086-66.356-145.086-147.964 0-82.372 65.67-147.964 146.613-147.964 41.999 0 79.415 17.54 106.142 46.524 12.218 12.203 32.835 28.22 55.742 41.186-2.91-98.816-48.094-173.406-96.598-206.626-4.611-3.157-7.252-8.461-7.252-14.046 0-9.549 7.752-17.293 17.315-17.293h237.98c9.562 0 17.314 7.744 17.314 17.293 0 5.585-2.641 10.889-7.253 14.046-48.503 33.22-93.653 107.844-95.834 207.39 22.144-12.966 43.524-28.983 55.744-41.186 26.726-28.22 64.141-46.528 106.142-46.528 80.943 0 146.611 66.355 146.611 147.968 0 80.845-64.909 147.2-146.611 147.2z" />
<glyph unicode="&#xe932;" glyph-name="e-sports" d="M339.188 677.973h311.466c22.613 0 40.96 15.787 40.96 34.987v126.72c0 19.2-18.347 34.987-40.96 34.987h-311.466c-22.613 0-40.96-15.787-40.96-34.987v-126.293c0-19.2 18.347-34.987 40.96-34.987v-0.427zM900.254 226.56l-75.52 275.627c-14.933 55.040-62.72 91.307-116.053 93.44-1.707 0-3.413 0-5.12 0h-426.666c-4.267 0-8.107-0.427-11.52-1.707h-1.28c0 0-3.84-1.28-5.547-1.707-43.52-10.24-79.787-43.52-92.587-90.453l-75.947-275.2c-19.2-69.973 21.333-144.213 90.88-165.547 69.12-21.333 140.8 17.92 160 87.893l6.827 24.747c4.693 17.92 20.907 30.293 39.68 30.293h215.892c18.347 0 34.56-12.373 39.68-30.293l6.827-24.747c19.2-69.973 90.88-109.227 160-87.893s110.080 95.573 90.88 165.547h-0.427zM667.294 489.813c17.92 0 32.853-14.507 32.853-32.853s-14.507-32.853-32.853-32.853c-18.347 0-32.853 14.507-32.853 32.853s14.507 32.853 32.853 32.853zM380.148 366.933h-24.747v-24.747c0-17.92-14.507-32.853-32.853-32.853s-32.853 14.507-32.853 32.853v24.747h-24.747c-17.92 0-32.853 14.507-32.853 32.853s14.507 32.853 32.853 32.853h24.747v24.747c0 17.92 14.507 32.853 32.853 32.853s32.853-14.507 32.853-32.853v-24.747h24.747c17.92 0 32.853-14.507 32.853-32.853s-14.507-32.853-32.853-32.853zM605.854 362.667c-17.92 0-32.853 14.507-32.853 32.853s14.507 32.853 32.853 32.853c18.347 0 32.853-14.507 32.853-32.853s-14.507-32.853-32.853-32.853zM667.294 301.227c-17.92 0-32.853 14.507-32.853 32.853s14.507 32.853 32.853 32.853c18.347 0 32.853-14.507 32.853-32.853s-14.507-32.853-32.853-32.853zM728.734 362.667c-17.92 0-32.853 14.507-32.853 32.853s14.507 32.853 32.853 32.853c18.347 0 32.853-14.507 32.853-32.853s-14.507-32.853-32.853-32.853zM527.774 653.653h-65.707v-24.747h65.707v24.747z" />
<glyph unicode="&#xe933;" glyph-name="sport" d="M517.594 874.667c-238.403 0-432.26-193.903-432.26-432.329 0-238.366 193.884-432.213 432.26-432.213 238.374 0 432.282 193.899 432.282 432.213-0.081 238.453-193.907 432.329-432.282 432.329zM872.23 431.497l-23.241 29.828 10.816 74.648c8.166-29.882 12.535-61.157 12.535-93.635 0.055-3.631 0-7.211-0.111-10.842zM831.181 608.245l-20.318-140.367-62.788-50.505-192.247 56.077-28.732 134.549 116.646 110.321 158.98-65.089c10.517-14.231 20.075-29.226 28.459-44.986zM578.415 135.957l-131.285 33.024-13.274 187.674 104.713 81.37 179.546-52.335 16.222-132.689-155.921-117.043zM596.083 788.409l18.79-43.921-123.554-116.877h-137.242l-71.993 79.921c62.679 55.776 145.162 89.672 235.508 89.672 27.008 0 53.257-3.059 78.49-8.795zM254.5 680.191l73.031-81.068-49.161-120.181-115.445-46.464c-0.109 3.307-0.137 6.613-0.137 9.86 0 91.422 34.767 174.921 91.712 237.853zM166.366 392.081l119.98 48.294 108.863-86.259 12.563-178.035-76.308-35.669c-87.615 54.246-149.967 145.472-165.098 251.669zM600.265 97.28v6.613l171.516 128.674h31.761c-48.969-66.509-120.58-115.43-203.277-135.287z" />
<glyph unicode="&#xe934;" glyph-name="burger-casino" d="M921.574 189.943c0 119.893-89.941 218.88-206.336 233.899-17.92 2.304-33.707-10.368-37.888-27.861l-79.445-332.16-58.496 263.765 57.899 98.219h-174.336l57.899-98.219-57.899-263.765-81.664 332.373c-4.267 17.408-20.011 29.952-37.803 27.605-113.493-14.848-201.088-111.445-201.088-228.395v-83.669c0-50.261 40.96-90.965 91.435-90.965h636.331c11.977-0.030 23.842 2.304 34.918 6.861 11.076 4.561 21.146 11.255 29.632 19.708s15.228 18.492 19.831 29.547c4.604 11.059 6.989 22.912 7.010 34.893v78.165zM716.766 670.284c0-54.316-21.577-106.408-59.985-144.814-38.404-38.409-90.496-59.985-144.815-59.985-54.315 0-106.407 21.577-144.815 59.985-38.408 38.406-59.985 90.497-59.985 144.814s21.577 106.408 59.985 144.815c38.407 38.407 90.5 59.985 144.815 59.985 54.319 0 106.411-21.577 144.815-59.985 38.409-38.408 59.985-90.499 59.985-144.815zM896 810.667c0-16.974-6.741-33.253-18.743-45.255s-28.284-18.745-45.257-18.745c-16.973 0-33.254 6.743-45.257 18.745s-18.743 28.281-18.743 45.255c0 16.974 6.741 33.253 18.743 45.255s28.284 18.745 45.257 18.745c16.973 0 33.254-6.743 45.257-18.745s18.743-28.281 18.743-45.255z" />
<glyph unicode="&#xe935;" glyph-name="plus" d="M554.667 789.333v-298.667h298.667v-85.333h-298.667v-298.667h-85.333v298.667h-298.667v85.333h298.667v298.667h85.333z" />
<glyph unicode="&#xe936;" glyph-name="game-khac" d="M905.707 468.74l-119.748 119.778c-11.409 11.393-7.855 23.573 7.868 27.113 0 0 12.983 2.929 28.979 18.923 34.338 34.321 34.304 90.043 0 124.316-34.355 34.337-89.997 34.337-124.352 0-15.996-15.994-18.906-28.963-18.906-28.963-3.541-15.752-15.757-19.277-27.132-7.852l-119.748 119.68c-11.392 11.409-30.059 11.409-41.451 0l-119.734-119.715c-11.375-11.424-7.852-23.637 7.868-27.161 0 0 13.002-2.929 28.98-18.89 34.288-34.322 34.339-90.012 0-124.365-34.321-34.323-90.046-34.289-124.335 0-15.978 16.010-18.907 28.996-18.907 28.996-3.525 15.736-15.754 19.261-27.145 7.868l-119.733-119.747c-11.393-11.392-11.393-30.042 0-41.417l119.733-119.748c11.393-11.392 7.852-23.603-7.868-27.145 0 0-12.985-2.944-28.98-18.923-34.339-34.351-34.339-90.010 0-124.331 34.321-34.325 89.997-34.355 124.335 0 16.012 15.991 18.908 28.962 18.908 28.962 3.54 15.753 15.753 19.277 27.129 7.834l119.75-119.68c11.392-11.409 30.059-11.409 41.451 0l119.765 119.714c11.392 11.392 7.838 23.637-7.868 27.145 0 0-13.018 2.931-28.996 18.893-34.355 34.351-34.338 90.010 0 124.365 34.321 34.321 89.997 34.368 124.335 0 15.991-15.996 18.889-28.996 18.889-28.996 3.558-15.753 15.753-19.294 27.162-7.902l119.748 119.778c11.379 11.426 11.379 30.076 0.004 41.468z" />
<glyph unicode="&#xe937;" glyph-name="chicken" d="M428.829 743.993c23.202 12.006 46.004 17.609 68.406 16.808 22.399-0.8 44.805-8.004 67.205-21.61 20.004-12.006 38.205-26.413 54.605-43.221 16.404-16.808 31.406-35.217 45.005-55.227 8.801-13.607 18.401-27.013 28.805-40.22 10.399-13.207 22.001-25.413 34.801-36.618 23.204-22.411 44.605-46.623 64.205-72.635 19.604-26.013 36.603-53.828 51.005-83.442 12.001-26.414 20.403-53.827 25.201-82.237 4.803-28.416 5.202-57.027 1.203-85.842-2.401-17.608-5.202-35.22-8.402-52.828s-6.001-35.215-8.402-52.823c-0.799-1.603-1.398-3.005-1.797-4.204-0.404-1.198-0.604-2.601-0.604-4.204-1.597 1.603-2.596 3.005-3 4.204-0.399 1.198-0.998 2.202-1.797 3-3.2 4.803-7.204 8.207-12.001 10.204-4.803 2.002-9.999 2.601-15.601 1.802s-10.404-3-14.403-6.605c-3.999-3.599-6.4-8.602-7.199-15.007-3.2-15.206-6.804-30.013-10.803-44.421s-9.999-28.411-18.002-42.020c-6.4-12.006-13.599-23.613-21.601-34.816-8.003-11.208-16-22.41-24.003-33.618-0.799-1.597-1.802-2.801-3-3.599-1.198-0.804-2.601-1.603-4.198-2.401 0 6.4-0.2 12.805-0.599 19.21-0.404 6.4-0.604 12.805-0.604 19.205-0.799 6.405-2.601 12.206-5.396 17.413-2.801 5.202-7.803 8.602-15.002 10.204-5.601 2.401-11.003 2.601-16.205 0.599-5.197-2.002-10.199-6.205-15.002-12.605-12.8-15.206-26.803-28.815-42.004-40.822s-32-22.41-50.401-31.217c-0.799 5.606-1.403 10.808-1.802 15.611s-0.998 9.605-1.797 14.408c-3.2 12.006-9.4 19.809-18.601 23.409-9.201 3.604-18.606 1.403-28.206-6.6-17.601-12.81-35.602-23.813-54.004-33.019s-38.003-16.21-58.805-21.012c-1.601 0-3-0.2-4.2-0.599s-2.201-0.599-3-0.599c-0.8 0-1.4 0-1.8 0s-0.2 0 0.6 0c0 7.204 0.2 14.208 0.6 21.012 0.4 6.799 0.6 13.404 0.6 19.809-0.8 10.404-5.001 17.807-12.601 22.211-7.601 4.398-16.201 5.402-25.802 3-9.601-3.2-18.802-6.405-27.602-9.605s-17.602-6.001-26.402-8.402c-1.6-0.804-3.2-1.403-4.8-1.802s-3.201-1.004-4.801-1.802c0.8 10.404 1.8 20.813 3 31.217s1.4 20.408 0.6 30.013c-1.601 9.605-1 17.807 1.8 24.612s8.201 13.409 16.202 19.809c12.001 8.806 21.202 19.809 27.602 33.019 6.401 13.204 12.401 26.609 18.001 40.218 15.201 36.019 26.803 72.637 34.803 109.855s12.401 75.433 13.201 114.652c0 4.803 0.8 8.806 2.4 12.006 1.601 3.205 4 6.405 7.201 9.605 10.401 12.006 22.402 22.211 36.003 30.618 13.601 8.402 27.202 16.207 40.803 23.41 14.4 7.203 28.204 15.408 41.403 24.612 13.204 9.205 24.602 20.61 34.202 34.217 12.001 16.808 20.603 34.417 25.805 52.826s5.402 38.019 0.599 58.829c-4.797 22.411-14.203 41.020-28.201 55.827-14.003 14.807-30.602 27.013-49.807 36.618-15.199 6.404-30.601 11.206-46.202 14.407s-31.403 6.003-47.404 8.404v-1.201zM112.001 257.756c0.8 11.208 3.4 21.612 7.8 31.217s9.801 18.806 16.202 27.612c12.001 17.608 26.002 32.814 42.003 45.624 16.002 12.805 32.403 24.812 49.204 36.014 13.601 9.605 26.203 20.014 37.804 31.217 11.601 11.208 21.802 24.012 30.603 38.419 2.4 3.202 4.2 6.603 5.401 10.205s1.8 7.404 1.8 11.405c0 15.207-0.2 30.415-0.6 45.622s-0.6 30.815-0.6 46.823c0 0 0 0.4 0 1.201s0.4 1.601 1.2 2.401c12.001-11.206 22.402-23.212 31.203-36.018s16.002-26.413 21.602-40.82c8.001-20.010 13.402-40.22 16.202-60.63 2.8-20.412 4.2-41.020 4.2-61.833-0.8-39.219-5.601-77.834-14.402-115.855-8.801-38.016-21.202-75.034-37.203-111.053-13.601-29.614-32.003-51.425-55.205-65.434-23.202-14.003-50.404-21.407-81.607-22.211-16.802-0.799-31.203 3.205-43.204 12.006-12.001 8.806-20.802 21.212-26.402 37.217-2.4 8.806-4.4 17.408-6 25.815-1.601 8.402-2 17.009-1.2 25.81 1.6 16.010 6.2 29.819 13.801 41.421 7.601 11.607 18.202 21.412 31.803 29.414 0.8 0 1.6 0.2 2.4 0.599 0.8 0.404 1.6 1.004 2.4 1.802 5.6 3.205 9.401 7.004 11.401 11.407s1.8 9.006-0.6 13.804c-2.4 5.606-6 9.006-10.801 10.209-4.801 1.198-10.401 0.2-16.802-3.005-5.6-3.2-11.001-6.6-16.201-10.204-5.2-3.599-11.001-7.004-17.401-10.204h1.2zM329.22 904.872c4.801 16.008 14.201 29.214 28.202 39.619s29.003 16.008 45.004 16.808c36.803 1.601 66.206-7.203 88.207-26.413s38.206-40.82 48.605-64.832c0.799-1.601 1.398-3.001 1.802-4.202 0.399-1.201 0.998-2.601 1.797-4.202 2.401-4.803 5.801-8.004 10.204-9.605 4.398-1.601 8.996-1.601 13.798 0s8.202 4.602 10.199 9.004c2.002 4.402 1.802 9.005-0.599 13.807-2.401 6.403-5.197 12.806-8.402 19.209-3.2 6.403-6.4 12.806-9.6 19.209-3.2 4.802-6.6 9.605-10.199 14.407s-7.404 9.605-11.402 14.407c8.801 3.202 17.203 4.402 25.201 3.602 8.003-0.8 15.606-3.602 22.804-8.404 21.601-12.006 39.404-27.013 53.407-45.022 13.998-18.009 22.999-39.419 26.998-64.231 1.603-10.405 2.002-20.81 1.203-31.215s-1.603-20.81-2.401-31.215c0-6.404 1.198-11.606 3.599-15.608s6.001-6.803 10.803-8.404c5.601-0.801 10.399 0.4 14.403 3.601 3.999 3.202 6.4 7.604 7.199 13.207 0.799 1.601 1.198 2.802 1.198 3.602s0 1.601 0 2.401c1.603 8.004 5.402 14.207 11.402 18.609s12.6 5.403 19.804 3.002c4.797-1.601 8.197-4.602 10.199-9.005s3-8.604 3-12.606c0-4.803-0.399-9.605-1.198-14.407-0.804-4.803-2.401-9.205-4.803-13.207-5.601-14.407-11.802-28.414-18.601-42.020s-13.404-27.614-19.804-42.020c-0.799 1.601-1.797 3.001-3 4.202-1.198 1.201-2.196 2.201-3 3.001-11.197 16.808-23.398 32.616-36.603 47.423-13.199 14.808-27.402 28.614-42.604 41.42-33.603 27.213-68.403 43.021-104.408 47.423-36.003 4.402-73.207-3.402-111.61-23.411-27.203-13.607-54.605-26.813-82.207-39.62s-55.005-25.612-82.207-38.418c-4.801-2.401-9.201-3.402-13.201-3.001s-8.4 1.801-13.201 4.202c-20.802 14.407-32.203 35.617-34.203 63.631s6.601 50.424 25.802 67.233c28.003 25.612 62.006 39.419 102.009 41.42s76.407-7.804 109.21-29.414c1.601-0.8 3-1.601 4.2-2.401s2.2-1.601 3-2.401c4.801-3.202 9.601-4.202 14.402-3.001s8.801 3.802 12.001 7.804c2.4 4.002 3.201 8.404 2.4 13.207s-3.6 8.804-8.401 12.006c-13.601 10.405-28.402 18.809-44.404 25.212s-32.403 10.805-49.204 13.207c-3.201 0-6.001 0.2-8.401 0.601s-5.2 1-8.401 1.801zM409.627 446.249c-3.2 22.411-8.001 43.821-14.401 64.231s-16.002 39.819-28.803 58.228c-8.001 12.006-17.202 23.212-27.602 33.616s-22.002 19.61-34.803 27.614c-8.001 4.802-15.401 10.205-22.202 16.208s-13.401 13.006-19.802 21.010c11.201 4.803 22.202 9.805 33.003 15.007s21.802 10.205 33.003 15.008c7.2 2.401 14.601 4.402 22.202 6.003s15.401 2.802 23.402 3.602c19.202 1.601 38.603 1.601 58.205 0s38.603-5.202 57.005-10.805c4.001-1.601 8.001-3.202 12.001-4.803s8.001-3.602 12-6.003c26.404-12.806 43.203-31.215 50.406-55.227 7.199-24.012 3.999-48.824-9.6-74.437-6.4-12.006-14.203-22.611-23.404-31.815s-20.202-17.009-33.003-23.412c-14.401-7.203-28.803-15.007-43.204-23.411s-28.403-17.809-42.004-28.214c0-0.798-0.2-1.203-0.6-1.203s-1.4-0.399-3-1.198h1.2zM376.024 629.938c0-14.407 5.401-27.213 16.201-38.419s23.802-16.808 39.004-16.808c15.201 0 28.202 5.403 39.003 16.208s16.202 23.812 16.202 39.019c0 15.207-5.401 28.214-16.202 39.019s-23.802 16.208-39.003 16.208c-14.402 0-27.002-5.403-37.804-16.208s-16.201-23.812-16.201-39.019h-1.2zM102.4 566.307c1.6 10.405 4.801 19.81 9.601 28.214s11.201 15.808 19.202 22.211c12.001 10.405 24.802 17.808 38.403 22.211s27.602 7.404 42.004 9.005c7.201 0.8 13.801-1 19.802-5.403s11.401-9.404 16.202-15.007c5.6-7.203 9.801-15.207 12.601-24.012s4.2-17.609 4.2-26.413c-27.203-1.601-54.205-3.401-81.007-5.403s-53.805-3.802-81.007-5.403zM265.614 502.676c-20.002 3.202-40.004 6.603-60.005 10.205s-39.203 9.404-57.605 17.409c0 0.8 0 1.4 0 1.801s0 1 0 1.801c19.202 0.801 38.604 1.601 58.205 2.401s39.404 1.601 59.405 2.401v-36.018zM431.229 647.947c4.8 0 9-1.801 12.601-5.403s5.401-7.804 5.401-12.606c0-4.803-1.6-9.005-4.801-12.606s-7.201-5.403-12.001-5.403c-4.801 0-9.201 1.801-13.201 5.403s-6.001 7.804-6.001 12.606c0 4.802 1.8 9.004 5.401 12.606s7.801 5.403 12.601 5.403z" />
<glyph unicode="&#xe938;" glyph-name="dial-game" d="M643.169 196.408c127.503 34.089 221.327 149.443 221.327 286.501 0 163.878-134.134 296.727-299.592 296.727-151.342 0-276.472-111.141-296.729-255.51l-48.489 29.554c33.029 158.867 175.038 278.32 345.219 278.32 194.657 0 352.461-156.293 352.461-349.091 0-157.267-104.996-290.244-249.344-333.917l14.766-58.511h40.115c7.383 0 13.373-5.924 13.373-13.24 0-7.311-5.99-13.24-13.373-13.24h-320.863c-7.384 0-13.369 5.929-13.369 13.24 0 7.316 5.986 13.24 13.369 13.24h40.102l15.123 59.914c-119.19 37.816-210.763 136.755-237.122 259.579l48.356 29.471c17.414-117.504 104.368-212.623 218.138-243.036h156.531zM280.501 481.705l-173.801 105.931v-211.864l173.801 105.933zM515.036 467.793h-184.747l-12.068-6.895c4.825-53.587 27.147-102.058 61.115-140.008l139.453 137.987c-1.521 2.828-2.785 5.809-3.753 8.916zM614.313 498.022h197.315c-3.471 56.149-26.153 107.238-61.609 146.909l-139.459-137.993c1.516-2.828 2.78-5.807 3.753-8.915zM610.56 458.877l139.459-137.992c35.456 39.67 58.138 90.762 61.609 146.908h-197.315c-0.973-3.107-2.237-6.088-3.753-8.916zM549.396 433.792c-3.139 0.963-6.149 2.212-9.006 3.712l-139.434-137.969c40.207-35.149 91.924-57.544 148.441-60.989v195.246zM588.954 437.504c-2.852-1.5-5.868-2.749-9.006-3.712v-195.246c56.745 3.436 108.375 25.876 148.465 60.964l-139.459 137.994zM579.948 532.025c3.139-0.958 6.154-2.21 9.006-3.712l139.459 137.992c-40.090 35.087-91.725 57.529-148.465 60.966v-195.246zM540.39 528.312c2.857 1.502 5.868 2.754 9.006 3.712v195.249c-56.636-3.431-108.352-25.79-148.528-60.907l139.522-138.054zM518.784 506.938l-139.534 138.073c-34.057-38.074-56.352-86.774-61.072-140.658l11.081-6.331h185.777c0.968 3.108 2.232 6.088 3.748 8.915z" />
<glyph unicode="&#xe939;" glyph-name="lode" d="M742.17 928c-142.244 0-258.578-110.232-268.92-249.823 74.848-17.83 141.177-57.137 192.331-111.301 4.672 0.356 11.373 0.99 20.525 1.862 9.907 1.030 9.67 2.1 13.395 3.13 4.794 1.585 8.474 4.121 11.053 7.568 2.496 3.487 3.763 8.717 3.763 15.651v129.805h-50.835v19.494h12.8c16.678 0 31.693 3.13 44.89 9.351 13.312 6.102 22.707 12.759 28.486 19.891h27.142c-0.397-10.064-0.832-21.753-1.344-35.224-0.474-13.551-0.755-25.557-0.755-36.255v-104.447c0-5.468 1.229-10.262 3.648-14.502 2.413-4.239 5.824-7.409 10.342-9.43 4-1.664 10.579-3.21 19.731-4.557 9.152-1.466 8.083-2.259 12.557-2.377v-25.201h-133.286c34.982-44.061 60.461-95.927 73.734-152.548 140.032 9.905 250.739 126.397 250.739 268.961-0.045 149.062-120.973 269.952-269.997 269.952zM395.525-51.11c-200.286 0-362.65 162.362-362.65 362.65 0 200.284 162.364 362.648 362.65 362.648s362.651-162.364 362.651-362.648c0-200.288-162.365-362.65-362.651-362.65zM518.156 296.947c-9.114 15.219-20.445 27.263-33.917 36.258-14.78 9.708-29.995 16.364-45.567 19.851-15.492 3.566-31.381 5.309-47.349 5.309-20.644 0-38.593-2.734-53.927-8.36-15.334-5.548-27.816-11.451-37.484-17.514l11.134 89.073h203.94v74.492h-223.434l-26.191-198.712 20.842-7.014c9.073 10.976 19.256 19.814 30.509 26.63 11.411 6.735 25.398 10.143 42.238 10.143 21.595 0 39.187-8.165 52.739-24.524 13.63-16.211 20.525-37.011 20.525-62.368 0-17.478-2.1-33.088-6.221-46.835-4.2-13.747-10.302-25.715-18.425-35.782-6.973-8.832-15.453-15.571-25.359-20.128s-19.97-6.893-30.232-6.893c-5.032 0-10.421 0.397-16.166 1.229-5.785 0.794-10.817 2.022-15.096 3.642 1.942 5.51 4.438 13.67 7.489 24.294 3.13 10.579 4.636 20.365 4.636 29.357 0 12.762-4.596 22.982-13.67 30.669-9.114 7.648-20.763 11.494-34.988 11.494-13.67 0-24.527-4.442-32.768-13.318-8.163-8.794-12.284-19.494-12.284-32.371 0-21.555 12.323-40.294 37.008-56.102 24.606-15.853 55.393-23.738 92.282-23.738 47.667 0 86.854 12.525 117.482 37.645 30.748 25.082 46.042 57.414 46.042 96.998 0 22.502-4.636 41.363-13.789 56.576z" />
<glyph unicode="&#xe93a;" glyph-name="burger-instans" d="M810.501 755.317l-34.56 133.846-138.24-53.334c-3.4-1.311-6.508-3.279-9.144-5.791s-4.756-5.518-6.231-8.848c-1.475-3.33-2.284-6.918-2.371-10.559s0.538-7.265 1.853-10.663c1.311-3.398 3.277-6.505 5.786-9.143 2.514-2.638 5.519-4.755 8.852-6.231 3.328-1.476 6.917-2.281 10.557-2.371s7.265 0.54 10.665 1.851l38.144 14.678c-135.47-218.496-339.33-366.378-613.378-443.521-7.084-1.992-13.086-6.712-16.687-13.133-3.6-6.415-4.505-14.003-2.513-21.084 1.992-7.086 6.716-13.087 13.133-16.686 6.417-3.604 14.002-4.506 21.086-2.514 289.494 81.495 506.88 239.914 650.153 475.306l9.175-35.67c0.911-3.532 2.509-6.851 4.7-9.767 2.196-2.915 4.941-5.37 8.079-7.224 3.144-1.854 6.62-3.071 10.235-3.582 3.61-0.511 7.286-0.305 10.819 0.605s6.856 2.508 9.769 4.701c2.913 2.193 5.371 4.939 7.224 8.081s3.072 6.618 3.584 10.23c0.507 3.612 0.302 7.29-0.609 10.823h-0.082zM241.585 229.929h-80.171c-12.586 0-23.424-4.352-32.426-13.097-3.967-3.63-7.135-8.049-9.302-12.969s-3.286-10.24-3.284-15.616v-119.47c-0.027-5.596 1.169-11.131 3.506-16.215s5.756-9.6 10.019-13.225c8.96-8.192 19.499-12.288 31.488-12.288h80.171c12.586 0 23.381 4.096 32.426 12.288 9.558 8.704 14.378 18.519 14.378 29.44v119.47c0 11.433-4.821 21.248-14.421 29.44-8.827 8.105-20.401 12.493-32.384 12.242zM463.963 329.728h-79.19c-13.226 0-24.32-4.096-33.28-12.288-3.975-3.625-7.151-8.044-9.325-12.964s-3.3-10.24-3.304-15.621v-219.264c-0.032-5.596 1.158-11.126 3.486-16.215 2.329-5.084 5.741-9.6 9.996-13.225 9.002-7.68 19.84-11.438 32.426-11.438h79.232c12.63 0 23.467 4.055 32.427 12.247 9.6 8.192 14.421 17.705 14.421 28.631v219.264c-0.348 5.494-1.805 10.865-4.283 15.785s-5.927 9.288-10.138 12.841c-8.821 8.125-20.438 12.529-32.427 12.288l-0.042-0.041zM677.381 517.887h-79.232c-11.986 0.238-23.603-4.165-32.425-12.288-3.973-3.635-7.142-8.058-9.313-12.988-2.166-4.93-3.282-10.256-3.277-15.641v-414.722c0-11.474 4.48-21.033 13.486-28.626 9.001-8.192 19.538-12.288 31.529-12.288h79.232c13.225 0 24.32 4.096 33.321 12.288 9.006 8.146 13.527 17.705 13.527 28.585v414.805c0.077 5.487-1.101 10.919-3.446 15.881s-5.791 9.322-10.081 12.748c-9.098 8.222-21.018 12.623-33.28 12.288l-0.041-0.043zM893.486 683.135h-79.232c-13.225 0-24.32-4.394-33.28-13.098-3.978-3.632-7.158-8.053-9.334-12.983-2.171-4.93-3.292-10.258-3.292-15.647v-579.199c-0.087-5.478 1.080-10.906 3.42-15.862 2.335-4.956 5.78-9.308 10.061-12.723 9.641-8.192 20.439-12.288 32.425-12.288h79.232c12.631 0 23.127 4.096 31.575 12.288 8.96 8.146 13.481 17.705 13.481 28.585v579.242c0.445 5.563-0.476 11.151-2.673 16.28-2.202 5.129-5.617 9.646-9.953 13.16-8.822 8.123-20.439 12.483-32.43 12.245z" />
<glyph unicode="&#xe93b;" glyph-name="card-game1" d="M361.814 438.62h366.931l87.895 224.425c13.655 34.56-3.415 73.386-37.975 86.614l-202.665 77.653c-34.56 13.227-73.814-4.266-86.614-39.253l-124.16-335.36c-1.706-4.694-2.986-9.814-3.413-14.509v0.43zM541.44 628.485l59.735 26.454c17.065 7.68 36.69 0 43.945-17.067l26.455-59.733c7.68-17.067 0-36.694-17.070-43.947l-59.73-26.453c-17.070-7.68-36.695 0-43.95 17.066l-26.45 59.734c-7.68 17.066 0 36.693 17.065 43.946zM194.986 410.46c-36.693 0-66.986-29.87-66.986-66.99v-181.33c0-36.695 29.866-66.99 66.986-66.99h604.158c36.695 0 66.99 29.87 66.99 66.99v181.33c0 36.695-29.87 66.99-66.99 66.99h-604.158zM307.2 222.3c-2.986-8.535-6.826-15.79-11.52-21.76-4.694-5.55-10.666-10.24-17.494-13.23-6.826-2.985-14.080-4.69-22.186-4.69s-15.36 1.705-22.186 4.69c-6.827 2.99-12.8 7.68-17.494 13.655s-8.96 13.225-11.52 21.76c-2.986 8.535-4.266 18.345-4.266 29.44s1.28 20.905 4.266 29.44c2.986 8.535 6.826 15.785 11.52 21.335 5.12 5.97 10.666 10.24 17.494 13.225s14.080 4.695 21.76 4.695c7.68 0 14.933-1.71 21.76-4.695s12.8-7.255 17.493-13.225c5.12-5.55 8.96-12.8 11.52-21.335 2.987-8.535 4.267-18.345 4.267-29.44s-1.28-20.905-4.267-29.865h0.854zM424.96 191.58c0 0-3.84-3.415-7.254-4.695-2.986-1.28-6.826-1.705-11.093-1.705s-8.534 0.85-12.374 2.56c-3.84 1.705-6.826 5.545-9.386 11.52l-17.494 43.090c-1.706 4.27-3.414 8.535-4.694 12.375s-2.986 8.535-4.693 13.655h-0.854c0.426-8.11 0.854-15.79 0.854-23.895s0-15.785 0-23.465v-33.28c0 0-3.414-0.855-5.974-1.28-2.56-0.43-5.12-0.855-7.68-0.855s-4.694 0-6.826 0.855c-2.134 0.425-3.414 1.28-4.694 2.56s-2.134 2.985-2.986 5.12c-0.854 2.13-0.854 5.12-0.854 8.96v107.090c1.706 2.99 4.266 5.12 7.68 6.4s6.826 2.135 10.666 2.135c4.267 0 8.534-0.855 12.374-2.56s7.254-5.12 9.386-11.095l17.494-43.090c1.706-4.27 3.414-8.535 4.694-12.8 1.28-3.84 2.986-8.535 4.693-13.655h0.854c-0.426 8.105-0.854 15.785-0.854 23.465s0 15.36 0 23.040v34.56c0 0 3.414 0.855 5.974 1.28 2.56 0.43 5.12 0.855 7.68 0.855 5.12 0 8.96-1.28 11.52-3.415 2.56-2.13 3.84-6.825 3.84-13.65v-110.080zM518.825 189.87c-2.13-2.13-4.69-3.41-7.678-3.41h-46.933c-5.12 0-8.96 1.705-11.947 5.545s-4.266 8.535-4.266 14.505v110.935c0 0 3.414 0.855 5.974 1.28 2.986 0.425 5.546 0.855 8.106 0.855s5.12 0 6.826-0.855c2.134-0.425 3.84-1.28 5.12-2.56s2.56-2.985 2.987-5.545c0.853-2.135 0.853-5.12 0.853-8.96v-84.48h40.109c0 0 1.705-3.84 2.13-6.4 0.855-2.56 0.855-5.12 0.855-8.11 0-5.545-0.855-9.81-2.985-12.37l0.85-0.43zM567.895 188.165c0 0-3.415-0.855-5.975-1.28s-5.545-0.855-8.105-0.855c-2.56 0-5.12 0-7.255 0.855-2.135 0-3.84 1.28-5.12 2.56s-2.56 2.985-2.985 5.545c-0.855 2.135-0.855 5.12-0.855 8.96v113.070c0 0 3.415 0.85 5.975 1.28 2.985 0.425 5.545 0.85 8.105 0.85s5.12 0 6.825-0.85c2.135-0.43 3.84-1.28 5.12-2.56s2.56-2.99 2.99-5.55c0.85-2.13 0.85-5.12 0.85-8.96v-113.065h0.43zM686.935 191.58c0 0-3.84-3.415-7.255-4.695-2.985-1.28-6.825-1.705-11.095-1.705-4.265 0-8.53 0.85-12.37 2.56-3.84 1.705-6.83 5.545-9.39 11.52l-17.49 43.090c-1.71 4.27-3.415 8.535-4.695 12.375s-2.985 8.535-4.695 13.655h-0.85c0.425-8.11 0.85-15.79 0.85-23.895s0-15.785 0-23.465v-33.28c0 0-3.41-0.855-5.97-1.28-2.56-0.43-5.12-0.855-7.68-0.855s-4.695 0-6.83 0.855c-2.13 0.425-3.41 1.28-4.69 2.56s-2.135 2.985-2.99 5.12c-0.85 2.13-0.85 5.12-0.85 8.96v107.090c1.705 2.99 4.265 5.12 7.68 6.4 3.41 1.28 6.825 2.135 10.665 2.135 4.265 0 8.535-0.855 12.375-2.56s7.25-5.12 9.385-11.095l17.495-43.090c1.705-4.27 3.41-8.535 4.69-12.8 1.28-3.84 2.99-8.535 4.695-13.655h0.855c-0.43 8.105-0.855 15.785-0.855 23.465s0 15.36 0 23.040v34.56c0 0 3.415 0.855 5.975 1.28 2.56 0.43 5.12 0.855 7.68 0.855 5.12 0 8.96-1.28 11.52-3.415 2.56-2.13 3.84-6.825 3.84-13.65v-110.080zM784.215 189.87c-1.71-2.13-4.27-3.41-7.68-3.41h-51.2c-5.12 0-8.96 1.705-11.95 5.545-2.985 3.415-4.265 8.535-4.265 14.505v90.455c0 5.975 1.28 11.095 4.265 14.505 2.99 3.415 6.83 5.55 11.95 5.55h57.6c0 0 1.705-3.84 2.13-6.4 0.855-2.56 0.855-5.12 0.855-8.11 0-5.545-0.855-9.385-2.985-11.52-1.71-2.13-4.27-3.41-7.68-3.41h-37.12v-20.055h39.25c0 0 1.71-3.84 2.135-6.4 0.855-2.56 0.855-5.12 0.855-8.105 0-5.55-0.855-9.39-2.99-11.52-1.705-2.135-4.265-3.415-7.68-3.415h-32v-22.615h44.8c0 0 1.71-3.84 2.135-6.4 0.855-2.56 0.855-5.12 0.855-8.105 0-5.545-0.855-9.385-2.99-11.945l1.71 0.85zM256 290.99c-7.254 0-13.226-3.41-17.494-9.81s-6.4-15.79-6.4-29.015c0-13.225 2.134-22.615 6.4-29.015s10.24-9.81 17.494-9.81c7.254 0 13.226 3.41 17.494 9.81s6.4 16.215 6.4 29.015c0 12.8-2.134 22.615-6.4 29.015s-9.814 9.81-17.494 9.81zM244.48 438.62h87.466c0.854 4.265 1.707 8.53 3.414 12.798l32.426 87.893c-19.626 14.934-30.293 40.96-22.186 67.414l13.654 45.226c7.68 24.747 37.973 31.147 55.040 14.507l44.8 120.746c3.413 8.96 8.106 16.64 14.506 23.040-1.28 0-2.134 0-3.414-0.426l-215.466-36.694c-36.266-6.4-60.586-40.534-54.614-77.226l43.947-256.854 0.426-0.425z" />
<glyph unicode="&#xe93c;" glyph-name="fish-game" d="M863.621 544.441l-8.105 8.534 0.85 6.826c5.975 56.32-12.8 111.36-51.625 151.466-58.455 60.16-135.68 93.44-218.025 93.44-43.95 0-86.615-9.386-125.868-27.733l-8.106 8.533c-28.586 29.867-66.986 46.080-107.52 46.080s-78.934-16.213-107.52-46.080c-5.12-5.546-7.68-13.653-5.974-20.906 1.707-7.68 7.254-13.654 14.080-16.214 37.547-12.8 69.12-38.4 90.454-72.96-8.534-11.093-16.214-22.613-23.466-34.56 35.84-2.986 68.266-18.346 93.013-42.24-2.56-0.426-5.12-1.706-7.253-3.84l-11.947-11.52c-45.653 42.667-114.346 46.080-163.84 8.107l-8.96 9.813c-5.12 5.974-14.080 6.4-20.053 0.854-5.547-5.546-5.974-14.934-0.854-20.48l8.96-9.814c-40.96-48.213-43.094-120.32-4.694-171.092l-11.946-11.52c-5.546-5.55-5.974-14.935-0.854-20.48 5.12-5.975 14.080-6.4 20.054-0.855l12.374 11.945c46.080-39.68 113.066-41.385 161.28-3.41l7.68-8.535c5.12-5.975 14.080-5.975 19.626-0.855-26.88-26.025-62.294-42.665-101.974-43.52 7.68-14.505 16.214-28.585 25.6-41.81l2.987-3.84c63.146-87.040 159.146-140.8 263.251-147.2l40.535-2.56c17.92-1.28 33.705-10.67 42.665-26.030 2.99-5.12 6.4-9.81 10.24-13.65 19.63-20.055 47.79-24.75 68.695-24.75 14.080 0 25.175 2.135 27.735 2.56 8.53 1.71 15.36 8.96 17.065 17.92 1.28 6.83 11.52 66.135-21.335 99.84 32.855 33.71 22.615 93.015 21.335 99.84-1.705 8.96-8.535 15.79-17.065 17.92-6.4 1.28-63.575 11.95-96.43-22.185l-0.85-1.28c-13.23-14.080-32-19.625-50.775-15.785l-20.905 4.69c-29.87 6.83-55.040 26.455-69.975 53.76l-1.28 2.135c-25.175 46.505-17.92 104.96 17.495 143.361 10.665-30.721 13.225-64.425 6.825-96.856-1.705-7.68 0.855-15.36 6.4-20.905 4.265-3.84 9.385-5.975 14.935-5.975 1.705 0 3.84 0 5.545 0.855 64.855 17.92 109.225 77.225 112.64 143.787 8.105-5.12 15.785-11.093 22.615-18.346l29.44-30.296c13.65-14.080 32-22.185 51.2-22.185s37.545 7.68 51.2 21.76c13.65 14.081 21.33 32.854 21.33 52.907s-7.68 38.827-21.33 52.907l0.425 0.426zM366.555 563.641l-28.16-26.88c0 0-0.427-0.426-0.854-0.854-19.626 15.36-46.506 16.64-67.84 4.694l-26.88 29.866c37.546 26.88 88.746 24.32 123.306-6.826h0.427zM323.888 457.827c-14.080-13.227-35.84-12.802-48.64 1.707-12.8 14.506-12.373 37.12 1.707 50.346s35.84 12.8 48.64-1.706c12.8-14.507 12.373-37.12-1.707-50.347zM222.342 550.841l26.88-29.866c-14.506-21.334-14.934-49.92-1.28-72.107 0 0-0.426-0.426-0.854-0.853l-28.16-26.879c-27.733 38.825-26.453 92.159 3.414 129.279v0.426zM238.555 400.225l27.306 26.455c0 0 0.854 1.28 1.706 1.705 19.627-12.8 44.8-12.8 64.854-0.425l26.88-29.865c-36.266-26.88-85.76-26.030-120.746 2.13zM380.208 418.575l-26.88 29.865c12.374 19.626 13.654 44.8 2.987 65.706 0.426 0 1.28 0.854 1.706 1.28l27.306 26.454c24.32-37.974 22.187-87.894-5.12-123.305zM406.662 367.8c5.546 5.545 5.974 14.505 0.426 20.48l-7.68 8.535c38.4 46.93 41.387 115.199 6.827 165.119l12.373 11.946c0 0 3.414 4.266 3.84 6.826 20.48-26.88 32.427-61.013 32.427-97.706 0-45.656-18.774-86.185-48.214-115.201zM771.886 585.401c-7.68 0-14.080 6.4-14.080 14.506s6.4 14.507 14.080 14.507c7.68 0 14.080-6.4 14.080-14.507s-6.4-14.506-14.080-14.506z" />
<glyph unicode="&#xe93d;" glyph-name="slots-game" d="M694.359 789.338c38.927 0 73.672-46.303 96.384-118.762l0.287 0.028 3.604-13.412c28.744-113.725 26.752-273.811-12.319-413.357-22.451-58.378-53.591-94.5-87.987-94.5l-2.104 0.143 0.026-0.143-364.204 0.225c-32.147 3.118-61.148 37.842-82.474 92.467l-0.317 0.026c-31.021 139.771-32.666 305.809-9.985 420.425l3.030 14.275h0.144c22.307 67.618 55.348 110.971 92.314 112.529v0.056h363.6zM222.516 676.781c-21.845-71.152-31.916-144.89-30.127-221.162 1.616-70.846 12.784-138.548 33.503-203.101l3.463-10.383h-20.719c-30.906 0-54.569 44.969-67.18 109.107-32.782 16.282-56.156 58.88-56.156 108.857 0 49.308 22.739 91.381 54.799 108.188 12.235 64.918 36.504 108.521 68.593 108.521h13.88l-0.057-0.028zM818.903 670.548c30.044-3.673 55.987-43.743 70.036-105.294 29.379-18.365 49.695-58.574 49.695-105.155 0-45.855-19.681-85.535-48.251-104.321-12.928-61.691-37.571-103.316-66.57-110.689l-4.879-0.891-0.056-0.307-21.99-0.031 5.11 12.662c22.707 59.412 35.548 124.078 38.436 194.005 3.174 76.466-8.397 149.788-34.744 220.048l13.215-0.028zM441.166 595.891l-10.071-3.729-14.833-6.483c-4.098-0.779-6.551 1.503-7.388 6.845s-4.53 8.153-11.081 8.375c-12.322 0-22.509-0.557-30.531-1.697-6.897-0.946-10.446-4.201-10.706-9.711l0.144-2.95-3.319-95.026c-0.404-3.84 0-6.678 1.241-8.57 0.837-1.28 2.049-2.087 3.607-2.504l2.655-0.279 38.265 0.751c2.222-0.668 4.126-0.334 5.829 1.002 1.096 0.863 2.106 2.226 3.001 3.979l1.212 2.977 5.050 8.431c4.646 7.847 10.821 13.329 18.497 16.418 6.407 2.56 15.064 2.977 26.029 1.28l6.868-1.28 55.493-15.388c14.167-2.17 28.221-2.17 42.132 0 13.906 2.17 26.865 6.65 38.871 13.384-4.188-4.841-10.301-10.351-18.324-16.445s-18.038-12.856-29.957-20.23c-7.501-3.617-15.319-7.791-23.46-12.577-8.136-4.786-16.594-10.157-25.336-16.113-9.205-6.815-17.227-13.742-23.98-20.813-6.753-7.066-12.293-14.218-16.593-21.484-5.598-8.566-10.042-18.504-13.188-29.773s-5.108-23.931-5.829-37.924c-0.49-3.702 0.087-6.456 1.702-8.264 1.212-1.367 3.030-2.145 5.454-2.422l2.626-0.087 134.361-0.251c6.113-0.584 10.358-0.333 12.723 0.727 1.792 0.778 2.57 2.084 2.278 3.809l-0.635 1.894-2.309 12.047c-1.034 8.182-1.5 17.311-1.352 27.382 0.143 10.071 0.835 21.12 2.161 33.111 1.413 10.383 3.466 20.567 6.093 30.469 2.621 9.907 5.827 19.592 9.58 29.025 3.866 10.295 8.192 20.48 12.984 30.469s10.071 19.84 15.754 29.523c3.261 6.483 7.936 14.080 14.054 22.79s13.65 18.505 22.595 29.412c2.079 2.059 3.118 3.896 3.118 5.454 0 1.057-0.461 2.032-1.357 2.894l-1.7 1.197-8.11 3.645-16.681 9.99c-2.309 1.53-4.27 2.087-6.001 1.753s-3.149-1.614-4.27-3.812c-2.053-2.616-4.705-4.786-8.054-6.456s-7.327-2.838-11.976-3.561c-6.292-1.002-12.554-1.53-18.842-1.586-6.292-0.056-12.585 0.39-18.903 1.336-28.887 5.426-55.951 10.379-81.175 14.859-22.075 3.923-44.815 1.948-68.218-5.871h-0.144l-0.058 0.056z" />
<glyph unicode="&#xe93e;" glyph-name="via-casino" d="M183.144 820.364c0 0-47.575-14.866-79.305-55.508s-84.26-120.946-52.531-215.117c31.73-94.171-40.642-133.833-40.642-133.833s-19.322-8.432-5.954-19.822c13.368-11.39 47.576-21.8 47.576-21.8s1.978-21.321-4.956-27.255c-6.934-5.935-13.886-13.386-5.954-19.819 7.933-6.437 31.73-20.322 37.664-19.824 0 0-4.955-12.888-6.933-17.343s-5.455-18.344 18.343-21.322c23.797-2.974 33.208-35.686 41.141-62.459s67.416-111.034 113.013-127.879c45.597-16.845 82.282 49.576 87.237 63.441s115.99 353.905 165.062 400.001c49.078 46.097 129.359 81.783 233.463 4.456 104.099-77.327 267.646-93.672 267.646-93.672s-75.827 34.207-130.853 84.76c-55.031 50.553-165.064 187.363-315.243 173.976s-267.649-313.744-288.47-513.015c0 0-77.327 55.026-111.515 229.003s-72.871 320.659 31.211 393.030z" />
<glyph unicode="&#xe93f;" glyph-name="sagaming" d="M599.706 804.85c34.524-21.228 44.692-50.417 41.324-92.451-6.267-79.485 13.594-156.979 30.444-234.172 1.536-7.056 2.243-6.875 35.113-13.629-34.877 0.422-27.489-16.884-21.043-36.304 16.671-50.596 16.020-50.657 63.785-27.197 5.734 2.831 11.228 8.801 21.458 4.403-10.936-15.078-26.307-23.644-40.73-31.36-19.569-10.435-22.584-22.072-15.135-42.819 29.322-81.659 56.868-163.978 85.243-245.996 15.135-43.658 8.75-63.078-29.087-87.322h-23.644c-55.803 48.788-113.797 95.708-160.2 154.081-44.81 56.387-44.16 116.214 12.293 158.126 47.887 35.523 49.659 69.837 29.204 116.572-0.415 0.906-0.471 1.93-0.65 2.959-2.422 14.228-7.803 19.658-23.588 13.926-38.482-13.926-76.672-26.414-84.475-75.863-1.357-8.381-7.624-16.102-12.235-23.823-8.217-13.747-17.557-26.655-31.271-35.338-6.917-4.403-15.725-7.782-21.813-1.807-6.207 6.088 2.483 12.298 4.788 18.212 5.911 15.258 19.094 27.802 16.315 46.254 1.419 0.241 2.838 0.481 4.197 0.722l-0.591 2.714-3.606-3.436c-38.070-18.452-65.558-49.695-93.401-80.451-32.927-36.362-69.223-68.147-115.923-84.188-28.552-9.769-57.4-12.908-80.278 14.172 0 8.023 0 16.041 0 24.064 2.719 2.473 5.912 4.644 8.099 7.537 28.375 36.849 68.218 56.325 108.889 74.358 5.853 2.596 13.951 6.216 17.853-2.529 3.015-6.697-3.724-10.977-7.981-14.474-11.527-9.349-23.646-17.915-35.469-26.839-4.552-3.436-11.587-6.815-9.163-13.445 3.251-8.986 11.527-4.705 17.912-3.922 49.893 6.093 44.513 54.518 62.661 85.033 4.316 7.296 6.858 14.474 3.429 22.676-2.306 5.489-4.315 11.459-7.981 15.862-10.108 12.242-20.394 24.422-31.685 35.456-28.316 27.743-59.706 52.409-84.298 83.95-42.799 54.879-42.917 106.14-1.419 161.563 49.065 65.554 113.5 108.613 189.521 134.726h11.823c25.538-20.867 28.966-60.549 4.315-88.41-26.365-29.792-58.819-53.010-91.036-76.108-4.848-3.498-10.877-7.538-16.020-2.774-6.917 6.392-0.414 13.629 2.896 18.394 9.576 13.871 20.868 26.415 31.035 39.863 3.547 4.704 6.917 11.278 1.005 15.861-3.133 2.473-9.458 2.473-13.773 1.267-48.829-13.087-83.647-90.4-61.716-136.897 15.666-33.169 40.552-58.739 66.445-83.586 33.518-32.083 66.327-64.832 75.312-115.249 22.404 14.054 43.035 27.259 64.021 39.926 8.513 5.125 11.35 13.327 14.069 21.949 35.588 114.284 76.082 227.48 76.082 349.903 0 5.246 4.49 10.553 6.917 15.8 3.958 0 7.859 0 11.822 0l-0.061 0.060zM552.356 449.762c17.853 4.704 35.763 9.167 53.555 14.112 6.917 1.93 13.010 5.307 11.116 14.474-7.803 37.028-15.667 74.057-23.47 111.086-14.008-47.824-36.588-91.486-40.786-140.335-1.126-0.362-2.186-0.664-3.313-1.026 0.476-0.119 1.244-0.601 1.418-0.421 0.594 0.542 1.009 1.326 1.48 2.050v0.060zM735.078 57.646c1.48-1.147 2.954-2.294 4.495-3.436-0.358 2.289-0.65 4.521-1.009 6.81-26.895 89.318-53.791 178.57-81.93 272.108-13.773-12.421-24.356-21.105-33.935-30.817-48.471-49.208-49.3-90.158-0.353-139.366 36.239-36.429 72.356-73.277 112.732-105.236v-0.061zM792.893 450.968c-13.481 2.895-28.728 2.714-30.090 19.298-0.829 10.011 10.168 11.157 17.618 9.408 13.358-3.196 32.63-1.568 35.41-18.273 1.592-9.649-16.082-5.428-22.938-10.433zM552.412 449.762c-0.471-0.663-0.824-1.507-1.475-2.049-0.179-0.184-0.947 0.241-1.418 0.42 1.121 0.362 2.186 0.664 3.308 1.026l-0.415 0.603zM475.684 371.364l3.606 3.436 0.591-2.714c-1.419-0.241-2.838-0.481-4.197-0.722zM738.565 61.020c0.358-2.289 0.65-4.521 1.009-6.81-1.48 1.142-2.959 2.289-4.495 3.436 1.065 1.203 2.248 2.35 3.43 3.374h0.056z" />
<glyph unicode="&#xe940;" glyph-name="jili" d="M422.495 618.608c23.124 0 46.249 0.065 69.374-0.050 5.317-0.027 9.67-2.497 12.143-7.159 2.673-5.037 0.2-13.191-4.835-16.233-2.209-1.332-4.789-2.431-7.329-2.814-6.058-0.911-9.59-4.238-10.887-9.87-0.851-3.681-1.349-7.451-1.843-11.199-0.338-2.378-0.506-4.776-0.501-7.176 0.037-3.69 0.307-7.368 0.501-11.066 0.132-2.488 0.452-4.969 0.452-7.454 0.027-74.245 0.055-148.489 0.086-222.734 0-3.144 0.664-6.349 1.508-9.4 1.017-3.681 3.993-5.54 7.627-6.666 3.302-1.009 6.532-2.222 9.67-3.63 4.706-2.13 7.163-6.175 7.259-10.977 0.104-5.325-1.932-10.143-7.299-12.544-2.458-1.091-5.268-1.905-7.925-1.91-45.432-0.113-90.865-0.128-136.297-0.041-5.133 0-9.498 2.063-12.696 6.19-4.377 5.647-3.13 15.749 4.454 19.277 3.124 1.449 6.236 2.79 9.599 3.681 4.942 1.311 8.067 4.019 8.561 10.568 0.375 4.972 0.442 9.974 0.445 14.966 0.031 47.227 0.044 94.454 0.040 141.682 0 4.191 0.387 8.376 0.387 12.567 0 4.087-0.329 8.175-0.39 12.263-0.074 4.875-0.046 9.749 0 14.624 0.135 18.906 0.381 37.812 0.369 56.718 0 4.262-0.734 8.547-1.385 12.77-0.531 3.469-2.734 5.679-6.239 6.666-2.458 0.693-4.9 1.435-7.274 2.358-9.498 3.628-10.899 10.289-10.318 17.364 0.147 1.768 1.487 3.831 2.894 5.087 2.946 2.649 6.54 4.179 10.779 4.167 23.024-0.053 46.047-0.024 69.070-0.024zM893.983 277.642c-20.874 0-41.748 0.005-62.623 0.015-4.296 0-8.259 1.213-11.668 3.871-8.863 6.932-4.654 18.104 1.823 21.458 3.087 1.597 6.472 2.749 9.83 3.697 3.948 1.101 6.845 3.174 7.951 7.055 0.722 2.381 1.106 4.844 1.152 7.327 0.061 73.738 0.061 147.474 0 221.212 0 4.627 0.732 9.136 1.126 13.707 0.2 2.085 0.287 4.178 0.261 6.271-0.077 3.899-0.251 7.795-0.476 11.685-0.108 2.092-0.333 4.176-0.666 6.245-0.753 4.503-3.471 7.598-7.603 9.519-2.12 0.987-4.342 1.768-6.502 2.653-5.53 2.298-9.149 6.024-10.291 12.063-1.357 7.129 2.237 11.417 8.817 13.515 1.51 0.481 3.19 0.478 4.803 0.654 0.614 0.037 1.229 0.037 1.843 0 25.042-0.162 50.089-0.439 75.136-0.457 19.932 0 39.859 0.295 59.791 0.457 5.238 0.041 9.114-2.39 12.723-5.968 2.191-2.175 2.186-4.194 1.5-6.661-0.589-2.11-1.019-4.288-1.869-6.298-1.843-4.35-5.222-7.073-9.928-8.143-0.691-0.159-1.382-0.351-2.079-0.507-6.313-1.412-9.83-5.405-10.941-11.509-0.379-1.965-0.579-3.956-0.599-5.953-0.046-14.81-0.077-29.616 0-44.423 0.056-10.592 0.307-21.181 0.43-31.77 0.046-4.070 0.036-8.143 0-12.213-0.026-1.88-0.287-3.758-0.271-5.638 0.041-4.17 0.271-8.34 0.271-12.514 0.020-48.727 0.031-97.454 0.031-146.181 0-2.084 0.020-4.229 0.502-6.241 0.722-3.021 2.509-5.473 5.565-6.697 2.801-1.121 5.647-2.166 8.54-3.062 3.497-1.085 6.252-2.97 8.704-5.714 1.736-1.946 2.458-3.589 1.715-6.057-0.358-1.203-0.108-2.575-0.102-3.876 0.031-3.738-1.915-6.4-5.222-7.782-3.011-1.203-6.144-2.109-9.354-2.693-6.641-1.3-13.414-1.157-20.147-1.178-17.393-0.056-34.785-0.020-52.178-0.020l0.005 0.148zM682.199 277.642h-3.425c-40.525 0-81.044 0-121.569 0-4.879 0-8.858 1.915-12.375 5.074-6.17 5.545-4.403 16.968 3.226 20.337 3.226 1.423 6.472 2.903 9.856 3.876 5.064 1.454 8.064 4.716 8.366 10.066 0.174 3.077 0.466 6.159 0.466 9.242 0.031 67.748 0.056 135.49 0.072 203.235 0 7.182 0.737 14.364 0.942 21.55 0.236 7.895 0.379 15.797 0.307 23.692-0.020 2.452-0.742 4.94-1.428 7.333-1.019 3.569-3.343 6.133-6.948 7.48-1.915 0.713-3.825 1.418-5.724 2.148-1.434 0.544-2.852 1.107-4.26 1.689-6.221 2.547-8.852 7.498-8.387 14.22 0.195 2.841 1.664 5.231 3.994 7.094 3.461 2.729 7.276 3.984 11.812 3.984 46.766-0.084 93.532-0.094 140.298-0.029 5.366 0 9.636-2.104 13.133-5.895 1.382-1.509 2.181-3.433 2.243-5.443 0.364-7.103-3.2-12.673-10.020-15.258-2.555-0.975-5.258-1.591-7.916-2.296-1.572-0.415-3.18-0.698-4.772-1.011-3.343-0.657-5.443-2.723-6.477-5.762-0.768-2.263-1.495-4.603-1.736-6.958-0.701-6.849-1.464-13.713-0.804-20.63 0.824-8.653 1.178-17.309 1.172-26.006-0.077-82.455-0.092-164.912-0.046-247.365v-4.367zM153.027 277.514v3.185c0 7.46 0.104 14.92-0.055 22.374-0.055 2.703 1.066 4.383 3.296 5.811 3.401 2.181 6.66 4.593 8.651 8.136 1.001 1.787 2.012 3.676 2.42 5.637 1.465 6.973 2.71 13.947 2.7 21.151-0.104 70.851-0.131 141.707-0.080 212.562 0 1.656-0.439 3.321-0.332 4.96 0.154 2.328 0.636 4.636 0.952 6.955 0.538 3.905 0.581 7.81-0.307 11.671-1.17 5.084-4.651 8.158-9.627 9.764-3.090 0.999-6.319 1.621-9.36 2.729-2.639 0.967-5.36 2.063-7.587 3.666-4.47 3.241-5.379 8.199-4.54 13 0.593 3.41 3.828 5.691 7.209 7.141 4.046 1.736 8.276 2.443 12.767 2.405 14.939-0.138 29.877 0 44.799-0.071 16.554-0.086 33.108-0.413 49.662-0.424 14.109-0.009 28.209 0.242 42.306 0.466 4.239 0.068 7.824-1.385 10.788-4.061 1.263-1.144 2.19-2.862 2.7-4.483 0.992-3.16 0.721-6.395-0.396-9.537-0.983-2.747-2.961-4.716-5.576-6.006s-5.372-2.379-8.082-3.537c-1.309-0.551-2.645-1.043-3.975-1.55-4.042-1.535-6.085-4.453-6.389-8.547-0.633-8.597-1.346-17.194-0.614-25.823 0.123-1.474 0.101-2.947 0.101-4.421 0-59.471 0-118.944 0-178.413 0-17.403-3.56-34.053-12.346-49.459-8.629-15.14-20.738-26.675-37.716-32.993-8.862-3.302-18.084-5.524-27.37-7.419-8.272-1.695-16.588-3.128-25.057-3.661-8.349-0.517-16.701-0.952-25.054-1.388-1.13-0.041-2.254 0.102-3.889 0.179zM130.753 306.161c0.194-1.024 0.553-2.063 0.559-3.098 0.046-7.26 0.025-14.525 0-21.791-0.029-0.415-0.084-0.829-0.166-1.239-2.55-0.983-5.108-0.297-7.538 0.102-18.64 2.924-35.888 9.175-50.956 20.332-15.448 11.433-25.254 26.276-28.626 44.8-0.75 4.127-1.023 8.34-1.272 12.529-0.203 3.42-0.049 6.866-0.037 10.312 0 1.603 0.055 2.98 1.272 4.506 1.419 1.766 1.843 4.291 2.737 6.467 2.851 6.886 7.191 12.8 12.613 18.068 3.53 3.425 7.4 6.461 11.713 8.812 3.597 1.966 7.547 3.425 11.489 4.695 6.365 2.063 13.012 2.176 19.66 1.864 1.415-0.108 2.817-0.333 4.19-0.676 4.948-1.091 9.913-2.243 14.354-4.675 5.955-3.22 11.287-7.398 15.764-12.355 4.335-4.823 7.45-10.209 9.756-16.092 1.447-3.697 1.975-7.542 2.018-11.494 0.065-5.806-0.246-11.535-1.963-17.147-2.405-7.869-6.684-14.515-13.685-19.354-4.977-3.441-10.060-6.733-15.089-10.102-1.425-0.952-2.884-1.869-4.223-2.929-1.938-1.526-2.043-2.258-0.614-4.209 2.722-3.748 6.623-5.775 11.188-6.63 2.089-0.41 4.248-0.451 6.856-0.696zM800.41 277.34h-99.22c-0.067 1.091-0.164 2.063-0.169 3.036-0.010 6.4-0.010 12.805 0 19.21 0.020 6.257 0.092 6.482 6.19 7.777 6.17 1.306 12.237 2.949 18.012 5.391 2.852 1.213 5.499 2.995 8.023 4.813 6.339 4.572 11.884 10.086 16.42 16.333 6.18 8.417 11.228 17.546 15.022 27.177 1.894 4.828 3.768 9.661 5.555 14.531 0.645 1.766 0.799 3.707 1.536 5.422 1.567 3.651 3.241 7.27 5.11 10.783 1.29 2.427 3.794 3.748 6.318 4.46 4.608 1.316 9.144 0.886 12.841-2.468 2.243-2.033 3.963-4.419 3.973-7.741 0.036-9.288 0.343-18.58 0.364-27.868 0.056-25.718 0.061-51.43 0.020-77.138l0.005-3.717z" />
<glyph unicode="&#xe941;" glyph-name="play-go" d="M526.838 603.415h-264.389c-1.019 0-1.952-0.664-2.225-1.706l-84.182-274.991c-0.46-1.516 0.659-3.128 2.238-3.128h126.11c1.019 0 1.952 0.66 2.237 1.705l23.096 77.686c0.473 1.613-0.646 3.133-2.225 3.133h-55.59c-1.578 0-2.784 1.613-2.225 3.128l34.247 108.518c0.273 1.043 1.206 1.708 2.225 1.708h193.498c1.578 0 2.785-1.613 2.225-3.131l-57.443-191.232c-23.855-77.496-98.564-140.861-174.378-140.861h-137.808c-75.828 0-118.421 63.457-94.573 140.861l86.68 281.821c23.855 77.498 103.946 135.361 179.762 135.361h264.674c1.582 0 2.785-1.612 2.227-3.13l-41.943-134.128c-0.287-0.853-1.219-1.613-2.237-1.613zM762.353 323.328h-129.741c-1.577 0-2.785 1.613-2.222 3.133l84.352 275.653c0.287 1.043 1.208 1.708 2.227 1.708h128.722c1.577 0 2.78-1.613 2.222-3.131l-83.333-275.653c-0.276-1.044-1.208-1.71-2.227-1.71zM887.916 742.788h-126.853c-78.054 0-160.184-58.811-184.586-138.586l-82.603-274.325c-24.501-79.683 17.54-145.039 95.592-145.039h126.858c77.952 0 163.983 65.736 188.488 145.418l81.48 273.282c24.489 79.775-20.424 139.251-98.376 139.251z" />
<glyph unicode="&#xe942;" glyph-name="qtech" d="M520.315 91.146c-54.471 1.055-97.711 3.681-139.806 15.037-22.356 6.047-44.33 13.148-63.142 26.926-15.431 11.356-24.101 25.764-20.557 45.164 1.363 7.311 4.144 13.829 10.578 18.985 26.554 21.084 50.491 44.59 69.849 72.141 13.959 19.876 24.428 41.38 30.862 64.625 0.6 2.207 1.309 4.68 0.818 6.835-3.163 14.198 4.962 23.818 13.959 33.126 10.742 11.095 24.482 17.669 39.041 22.61 26.5 8.991 53.82 14.776 81.898 15.985 20.941 0.896 39.972-5.417 57.856-15.565 3.436-1.946 7.414-3.42 11.341-4.152 11.889-2.212 21.263-7.731 29.061-16.773 33.864-39.229 71.322-75.034 112.164-107.53 8.397-6.676 17.172-12.989 25.298-19.983 2.509-2.156 4.582-5.996 4.797-9.149 3.272-48.113-17.772-83.395-61.23-106.634-21.484-11.515-44.549-18.98-68.434-23.926-21.156-4.413-42.368-9.042-63.852-11.674-27.044-3.313-54.359-4.68-70.61-5.99l0.108-0.056zM524.677 503.124c-0.87-16.931-1.034-29.498-7.526-40.909-3.594-6.362-8.613-10.569-15.919-12.935-11.723-3.84-23.065-8.94-34.897-12.411-14.341-4.152-29.008-7.204-43.512-10.568-2.617-0.63-5.507-0.369-8.124-0.998-13.795-3.261-26.773 0.159-39.532 4.628-11.287 3.942-21.702 9.518-29.881 18.297-11.178 11.989-15.649 26.501-13.904 42.065 2.181 19.455 4.362 38.806 4.471 58.471 0 8.36 3.599 17.089 7.034 25.081 7.416 17.404 14.832 34.967 23.992 51.53 12.269 22.242 28.136 42.065 51.364 55 21.756 12.094 44.658 15.144 67.995 4.627 6.598-2.997 12.269-8.15 17.776-12.935 2.126-1.84 3.381-5.363 3.708-8.255 3.054-26.501 5.887-53.002 8.668-79.503 3-28.499 5.837-56.998 8.289-81.134v-0.052zM547.574 523.056c1.147 30.708 3.328 56.788 11.668 81.922 10.092 30.34 29.174 54.001 57.093 71.406 12.539 7.782 25.405 11.252 40.131 9.465 16.195-1.998 28.462-10.516 38.932-21.716 13.358-14.355 22.789-31.076 29.937-48.953 10.138-25.345 11.228-51.635 7.142-78.242-6.764-43.537-32.502-74.876-69.304-98.906-8.018-5.207-15.98-10.358-25.902-12.201-20.065-3.732-37.571 1.684-53.161 13.307-7.47 5.571-14.013 12.408-20.557 19.086-8.509 8.728-10.199 20.349-12.052 31.443-2.125 12.462-3 25.134-3.927 33.337v0.053zM899.876 450.548c-2.616-23.033-5.504-46.063-7.798-69.092-1.797-18.299-8.177-34.862-18.918-49.848-12.324-17.193-28.083-31.34-47.549-40.223-20.721-9.467-41.221-6.415-57.088 15.089-13.143 17.828-29.445 32.707-44.221 48.952-10.849 11.94-18.376 25.452-20.009 41.334-1.859 17.772 7.030 31.334 19.026 44.006 24.704 26.083 49.019 52.479 72.796 79.295 8.612 9.675 15.375 20.875 22.845 31.443 1.254 1.735 2.074 3.734 2.836 5.731 3.599 9.465 10.742 14.934 20.721 17.194 2.017 0.473 3.978 0.841 5.996 1.315 13.194 3.154 22.682-0.894 30.1-11.831 6.38-9.464 9.979-19.823 11.448-30.76 2.893-21.348 5.181-42.802 7.526-64.202 0.655-6.047 0.707-12.147 1.034-18.246l1.147-0.158h0.108zM366.439 373.668c-0.109-14.249-5.18-26.921-12.487-39.066-10.36-17.193-20.611-34.545-35.006-48.85-9.924-9.83-21.702-17.93-32.662-26.762-1.581-1.265-3.49-2.212-4.798-3.681-5.235-5.996-10.906-5.944-18.158-3.052-29.39 11.781-55.727 27.709-76.665 51.057-10.033 11.203-17.23 24.084-22.084 38.124-2.945 8.571-5.234 17.3-8.015 25.923-2.399 7.414-1.854 13.88 2.454 20.982 13.304 21.765 25.682 44.063 38.496 66.146 4.798 8.255 9.106 16.984 14.995 24.503 10.306 13.145 26.064 18.561 42.858 8.834 17.012-9.885 34.515-19.297 50.165-30.971 13.359-9.939 24.482-22.713 36.315-34.494 7.742-7.624 15.54-15.406 19.302-25.764 2.672-7.363 4.362-15.037 6.489-22.559-0.436-0.102-0.818-0.21-1.254-0.312l0.054-0.056zM223.085 654.138c4.199-3.838 4.635-8.308 4.362-12.62-0.272-4.627 1.145-8.203 4.308-11.62 5.725-6.152 8.343-13.619 10.142-21.664 2.072-9.307 4.362-18.509 3.762-28.184-0.654-11.095-4.198-21.348-9.978-30.708-7.252-11.726-28.408-12.567-36.26-1.577-2.235 3.155-3.489 7.098-4.526 10.884-3.871 13.987-3.326 28.079 0.327 42.013 4.635 17.51 13.141 33.39 23.392 48.375 1.145 1.735 2.726 3.155 4.417 5.101h0.054zM829.645 728.703c2.888-3.050 5.888-5.994 8.668-9.149 11.781-13.46 21.376-28.026 24.484-45.798 1.802-10.464 1.362-20.244-5.78-29.446-10.47-13.461-24.32-14.618-38.333-7.257-12.867 6.783-16.082 12.988-13.793 27.080 1.147 7.046 3.164 14.039 5.453 20.823 2.125 6.257 7.035 10.253 13.471 12.514 7.521 2.682 9.103 5.206 7.793 13.040-0.814 4.838-2.017 9.623-2.995 14.46-0.22 0.999 0 2.103 0 3.103 0.379 0.21 0.707 0.42 1.091 0.631h-0.056zM441.58 804.836c-0.6-4.154-1.472-8.36-1.69-12.514-0.218-3.891-0.6-8.098 0.709-11.673 1.036-2.84 4.308-4.943 6.707-7.257 2.181-2.051 5.289-3.523 6.761-5.942 7.143-11.883 8.452-24.766 5.944-38.121-0.327-1.682-1.2-3.523-2.454-4.68-7.742-7.046-16.794-11.621-27.536-12.935-13.196-1.63-20.066 5.521-24.592 16.3-5.344 12.83-0.545 24.661 4.035 36.229 5.943 15.091 16.195 27.658 27.754 39.173 0.872 0.841 2.072 1.42 3.108 2.156 0.436-0.263 0.872-0.473 1.254-0.736zM627.405 818.195c0 4.102-0.599 7.887 0.215 11.305 0.604 2.419 2.836 4.785 4.966 6.31 0.65 0.474 4.035-1.735 5.34-3.365 19.901-24.135 25.631-51.688 20.884-81.712-1.034-6.573-5.453-9.885-12.324-10.148-5.617-0.21-11.233-0.42-16.845-0.736-5.294-0.315-9.928 1.315-13.363 4.996-3.487 3.786-6.543 7.94-9.487 12.199-2.78 4.101-0.328 7.992 1.526 11.62 1.418 2.787 3.384 5.311 5.289 7.835 13.307 17.299 12.273 20.665 13.742 41.697h0.056z" />
</font>
</defs>
</svg>
